Loading...
Error

(Progressive Rock) Dogma – Twin Sunrise (1995) [FLAC (Image+.cue), lossless]

Статистика раздачи
Размер:  299 MB   |    Зарегистрирован:  8 месяцев   |    Скачан:  0 раз

Полного источника не было: 7 месяцев

Сидов:  0  |  0 KB/s  ]   Личеров:  0  |  0 KB/s  ]

* - сиды/пиры с внешних источников

   
 
Автор Сообщение

Rsa2 Пол:Муж

17-Янв-2022 14:05

Dogma – Twin Sunrise

Жанр: Progressive Rock
Год выпуска: 1995
Носитель: CD
Производитель: Brazil Progressive Rock Worldwide – PRW019
Аудиокодек: FLAC
Тип рипа: Image+.cue
Битрейт: lossless
Продолжительность: 00:53:32

Треклист:

01 Midday 5:52
02 The Search 7:19
03 Burn The Witch 5:36
04 Hymn 8:22
05 The Place 4:02
06 The Landing 9:59
07 Twin Sunrise 12:18
Exact Audio Copy V0.99 prebeta 5 from 4. May 2009 

Отчёт EAC об извлечении, выполненном 10. июля 2011, 20:48

Dogma / Twin Sunrise

Дисковод: ASUS SDRW-08D1S-U Adapter: 6 ID: 2

Режим чтения : Достоверность
Использование точного потока : Да
Отключение кэша аудио : Да
Использование указателей C2 : Нет

Коррекция смещения при чтении : 667
Способность читать области Lead-in и Lead-out : Нет
Заполнение пропущенных сэмплов тишиной : Да
Удаление блоков с тишиной в начале и конце : Нет
При вычислениях CRC использовались нулевые сэмплы : Да
Интерфейс : Установленный внешний ASPI-интерфейс

Выходной формат : Внутренние WAV-операции
Формат сэмплов : 44.100 Гц; 16 бит; стерео

TOC извлечённого CD

Трек | Старт | Длительность | Начальный сектор | Конечный сектор
---------------------------------------------------------------------
1 | 0:00.00 | 5:55.07 | 0 | 26631
2 | 5:55.07 | 7:22.33 | 26632 | 59814
3 | 13:17.40 | 5:39.52 | 59815 | 85291
4 | 18:57.17 | 8:25.35 | 85292 | 123201
5 | 27:22.52 | 4:05.23 | 123202 | 141599
6 | 31:28.00 | 10:02.22 | 141600 | 186771
7 | 41:30.22 | 12:18.73 | 186772 | 242194

Характеристики диапазона извлечения и сообщения об ошибках

Выбранный диапазон

Имя файла D:\obraz\Dogma - Twin Sunrise\Dogma - Twin Sunrise.wav

Пиковый уровень 93.7 %
Качество диапазона 99.8 %
CRC теста 25F792BF
CRC копии BECEAE9A
Копирование... OK

Ошибок не произошло

AccurateRip: сводка
Трек 1 нет в базе данных
Трек 2 нет в базе данных
Трек 3 нет в базе данных
Трек 4 нет в базе данных
Трек 5 нет в базе данных
Трек 6 нет в базе данных
Трек 7 нет в базе данных
Ни одного трека нет в базе AccurateRip

Конец отчёта
REM GENRE "Progressive Rock" 
REM DATE 1995
REM DISCID 6A0C9D07
REM COMMENT "ExactAudioCopy v0.99pb5"
PERFORMER "Dogma"
TITLE "Twin Sunrise"
FILE "Dogma - Twin Sunrise.wav" WAVE
TRACK 01 AUDIO
TITLE "Midday"
PERFORMER "Dogma"
FLAGS DCP
INDEX 01 00:00:00
TRACK 02 AUDIO
TITLE "The search"
PERFORMER "Dogma"
FLAGS DCP
INDEX 00 05:51:18
INDEX 01 05:55:07
TRACK 03 AUDIO
TITLE "Burn the witch"
PERFORMER "Dogma"
FLAGS DCP
INDEX 00 13:15:22
INDEX 01 13:17:40
TRACK 04 AUDIO
TITLE "Hymn"
PERFORMER "Dogma"
FLAGS DCP
INDEX 00 18:54:56
INDEX 01 18:57:17
TRACK 05 AUDIO
TITLE "The place (where are you?)"
PERFORMER "Dogma"
FLAGS DCP
INDEX 00 27:18:74
INDEX 01 27:22:52
TRACK 06 AUDIO
TITLE "The landing"
PERFORMER "Dogma"
FLAGS DCP
INDEX 00 31:25:47
INDEX 01 31:28:00
TRACK 07 AUDIO
TITLE "Twin sunrise"
PERFORMER "Dogma"
FLAGS DCP
INDEX 00 41:27:31
INDEX 01 41:30:22

Этот торрент недоступен для скачивания без регистрации, однако доступен по публичной magnet-ссылке (источники с публичных трекеров). Перед использованием ссылки прочтите, пожалуйста Пользовательское соглашение, а также как можно дольше оставайтесь на раздаче! Для того, чтобы скачать сам торрент-файл (который видит больше источников), а также для того, чтобы поблагодарить релизера, вам необходимо зарегистрироваться. Если регистрироваться лень - вы можете также попробовать скачать релиз по нашим партнерским ссылкам ниже. Кроме того, зарегистрированным пользователям не показывается всплывающая реклама при скачивании.

[underver.se].t233271.torrent
Трекер: Зарегистрирован   [ 17.01.2022 14:05 ]  
Статус: проверено (by Phobos and Deimos at 17.01.2022 14:28)
Поблагодарили: пока никто не поблагодарил...
Тип торрента: публичный - доступные источники с открытых трекеров: 
Размер: 299 MB (занимает 0.07 DVDR, для записи нужно 1 болванка DVDR/RW)
 
 

Яндекс.Метрика powered by Sphinx


В Н И М А Н И Е
Сайт не распространяет и не хранит электронные версии произведений, а лишь бесплатно и без коммерческой выгоды (не требуя взамен платы,
SMS и т.д.) предоставляет доступ к создаваемому пользователями каталогу ссылок на торрент-файлы, которые содержат только списки хеш-сумм.
Убедительная просьба с жалобами обращаться напрямую к пользователю, разместившему торрент файл.

Вверх