Loading...
Error

(Pop Rock) Elvis Costello & The Imposters - The Boy Named If (2022) [FLAC (Tracks+.Cue), Lossless]

Статистика раздачи
Размер:  597 MB   |    Зарегистрирован:  8 месяцев   |    Скачан:  3 раза

Полного источника не было: 2 месяца 9 дней

Сидов:  0  |  0 KB/s  ]   Личеров:  0  |  0 KB/s  ]

* - сиды/пиры с внешних источников

   
 
Автор Сообщение

Бишеп Пол:Муж

17-Янв-2022 16:34

Elvis Costello & The Imposters - The Boy Named If

Жанр: Pop Rock
Год выпуска: 2022
Носитель: CD
Производитель диска: Capitol Records - B003466302
Аудиокодек: FLAC
Тип рипа: Tracks+.CUE
Битрейт аудио: lossless
Продолжительность: 00:52:03


Треклист:
01. Farewell, OK
02. The Boy Named If
03. Penelope Halfpenny
04. The Difference
05. What If I Can’t Give You Anything But Love?
06. Paint The Red Rose Blue
07. Mistook Me For A Friend
08. My Most Beautiful Mistake
09. Magnificent Hurt
10. The Man You Love To Hate
11. The Death Of Magic Thinking
12. Trick Out The Truth
13. Mr. Crescent

Exact Audio Copy V1.6 from 23. October 2020 

EAC extraction logfile from 15. January 2022, 15:40

Elvis Costello & The Imposters / The Boy Named If

Used drive : ASUS BW-12D1S-U Adapter: 1 ID: 0

Read mode : Secure
Utilize accurate stream : Yes
Defeat audio cache : Yes
Make use of C2 pointers : No

Read offset correction : 667
Overread into Lead-In and Lead-Out : No
Fill up missing offset samples with silence : Yes
Delete leading and trailing silent blocks : No
Null samples used in CRC calculations : Yes
Used interface : Native Win32 interface for Win NT & 2000
Gap handling : Appended to previous track

Used output format : User Defined Encoder
Selected bitrate : 1024 kBit/s
Quality : High
Add ID3 tag : No
Command line compressor : C:\Program Files (x86)\Exact Audio Copy\FLAC\FLAC.EXE
Additional command line options : -V -8 -T "Date=%year%" -T "Genre=%genre%" %source%

TOC of the extracted CD

Track | Start | Length | Start sector | End sector
---------------------------------------------------------
1 | 0:00.00 | 2:54.11 | 0 | 13060
2 | 2:54.11 | 4:24.48 | 13061 | 32908
3 | 7:18.59 | 2:57.01 | 32909 | 46184
4 | 10:15.60 | 3:45.56 | 46185 | 63115
5 | 14:01.41 | 4:03.38 | 63116 | 81378
6 | 18:05.04 | 4:46.29 | 81379 | 102857
7 | 22:51.33 | 4:13.03 | 102858 | 121835
8 | 27:04.36 | 4:47.20 | 121836 | 143380
9 | 31:51.56 | 3:13.14 | 143381 | 157869
10 | 35:04.70 | 4:53.37 | 157870 | 179881
11 | 39:58.32 | 3:31.68 | 179882 | 195774
12 | 43:30.25 | 4:53.10 | 195775 | 217759
13 | 48:23.35 | 3:39.25 | 217760 | 234209

Track 1

Filename E:\Torrents of Autumn\Costello, Elvis [2022] The Boy Named If\01. Farewell, OK.wav

Pre-gap length 0:00:02.00

Peak level 94.2 %
Extraction speed 4.2 X
Track quality 100.0 %
Test CRC C751D6E1
Copy CRC C751D6E1
Copy OK

Track 2

Filename E:\Torrents of Autumn\Costello, Elvis [2022] The Boy Named If\02. The Boy Named If.wav

Peak level 94.3 %
Extraction speed 4.9 X
Track quality 100.0 %
Test CRC 4BF45D04
Copy CRC 4BF45D04
Copy OK

Track 3

Filename E:\Torrents of Autumn\Costello, Elvis [2022] The Boy Named If\03. Penelope Halfpenny.wav

Peak level 94.3 %
Extraction speed 5.0 X
Track quality 100.0 %
Test CRC E920DB6D
Copy CRC E920DB6D
Copy OK

Track 4

Filename E:\Torrents of Autumn\Costello, Elvis [2022] The Boy Named If\04. The Difference.wav

Peak level 94.3 %
Extraction speed 4.5 X
Track quality 99.9 %
Test CRC FE2A74C9
Copy CRC FE2A74C9
Copy OK

Track 5

Filename E:\Torrents of Autumn\Costello, Elvis [2022] The Boy Named If\05. What If I Can't Give You Anything but Love.wav

Peak level 94.3 %
Extraction speed 6.0 X
Track quality 100.0 %
Test CRC 321C95B4
Copy CRC 321C95B4
Copy OK

Track 6

Filename E:\Torrents of Autumn\Costello, Elvis [2022] The Boy Named If\06. Paint the Red Rose Blue.wav

Peak level 94.3 %
Extraction speed 6.4 X
Track quality 100.0 %
Test CRC 84261C86
Copy CRC 84261C86
Copy OK

Track 7

Filename E:\Torrents of Autumn\Costello, Elvis [2022] The Boy Named If\07. Mistook Me for a Friend.wav

Peak level 94.3 %
Extraction speed 6.7 X
Track quality 100.0 %
Test CRC D9C609DB
Copy CRC D9C609DB
Copy OK

Track 8

Filename E:\Torrents of Autumn\Costello, Elvis [2022] The Boy Named If\08. My Most Beautiful Mistake.wav

Peak level 94.3 %
Extraction speed 7.2 X
Track quality 100.0 %
Test CRC 53D1E528
Copy CRC 53D1E528
Copy OK

Track 9

Filename E:\Torrents of Autumn\Costello, Elvis [2022] The Boy Named If\09. Magnificent Hurt.wav

Peak level 94.3 %
Extraction speed 6.1 X
Track quality 99.9 %
Test CRC A900F13B
Copy CRC A900F13B
Copy OK

Track 10

Filename E:\Torrents of Autumn\Costello, Elvis [2022] The Boy Named If\10. The Man You Love to Hate.wav

Peak level 94.3 %
Extraction speed 6.8 X
Track quality 99.9 %
Test CRC B1752591
Copy CRC B1752591
Copy OK

Track 11

Filename E:\Torrents of Autumn\Costello, Elvis [2022] The Boy Named If\11. The Death of Magic Thinking.wav

Peak level 94.3 %
Extraction speed 7.6 X
Track quality 100.0 %
Test CRC 6E7B26D6
Copy CRC 6E7B26D6
Copy OK

Track 12

Filename E:\Torrents of Autumn\Costello, Elvis [2022] The Boy Named If\12. Trick Out the Truth.wav

Peak level 94.3 %
Extraction speed 7.3 X
Track quality 99.9 %
Test CRC 2EB367E4
Copy CRC 2EB367E4
Copy OK

Track 13

Filename E:\Torrents of Autumn\Costello, Elvis [2022] The Boy Named If\13. Mr. Crescent.wav

Peak level 94.3 %
Extraction speed 8.1 X
Track quality 100.0 %
Test CRC 55A667EA
Copy CRC 55A667EA
Copy OK

No errors occurred

End of status report

---- CUETools DB Plugin V2.1.6

[CTDB TOCID: _mOFVRhiV194UY1z3E10WzvnCmw-] found
Submit result: _mOFVRhiV194UY1z3E10WzvnCmw- has been confirmed
Track | CTDB Status
1 | (11/11) Accurately ripped
2 | (11/11) Accurately ripped
3 | (11/11) Accurately ripped
4 | (11/11) Accurately ripped
5 | (11/11) Accurately ripped
6 | (11/11) Accurately ripped
7 | (11/11) Accurately ripped
8 | (11/11) Accurately ripped
9 | (11/11) Accurately ripped
10 | (11/11) Accurately ripped
11 | (11/11) Accurately ripped
12 | (11/11) Accurately ripped
13 | (11/11) Accurately ripped

==== Log checksum A410A4D43F632855BE2E620B9890BA6E186FEF68C4E178652F809B0DC14FB7E7 ====
REM GENRE "Contemporary Pop" 
REM DATE 2022
REM DISCID 9A0C320D
REM COMMENT "ExactAudioCopy v1.6"
PERFORMER "Elvis Costello & The Imposters"
TITLE "The Boy Named If"
REM COMPOSER "Elvis Costello"
FILE "01. Farewell, OK.wav" WAVE
TRACK 01 AUDIO
TITLE "Farewell, OK"
PERFORMER "Elvis Costello & The Imposters"
REM COMPOSER "Elvis Costello"
FLAGS DCP
INDEX 01 00:00:00
FILE "02. The Boy Named If.wav" WAVE
TRACK 02 AUDIO
TITLE "The Boy Named If"
PERFORMER "Elvis Costello & The Imposters"
REM COMPOSER "Elvis Costello"
FLAGS DCP
INDEX 01 00:00:00
FILE "03. Penelope Halfpenny.wav" WAVE
TRACK 03 AUDIO
TITLE "Penelope Halfpenny"
PERFORMER "Elvis Costello & The Imposters"
REM COMPOSER "Elvis Costello"
FLAGS DCP
INDEX 01 00:00:00
FILE "04. The Difference.wav" WAVE
TRACK 04 AUDIO
TITLE "The Difference"
PERFORMER "Elvis Costello & The Imposters"
REM COMPOSER "Elvis Costello"
FLAGS DCP
INDEX 01 00:00:00
FILE "05. What If I Can't Give You Anything but Love.wav" WAVE
TRACK 05 AUDIO
TITLE "What If I Can't Give You Anything but Love?"
PERFORMER "Elvis Costello & The Imposters"
REM COMPOSER "Elvis Costello"
FLAGS DCP
INDEX 01 00:00:00
FILE "06. Paint the Red Rose Blue.wav" WAVE
TRACK 06 AUDIO
TITLE "Paint the Red Rose Blue"
PERFORMER "Elvis Costello & The Imposters"
REM COMPOSER "Elvis Costello"
FLAGS DCP
INDEX 01 00:00:00
FILE "07. Mistook Me for a Friend.wav" WAVE
TRACK 07 AUDIO
TITLE "Mistook Me for a Friend"
PERFORMER "Elvis Costello & The Imposters"
REM COMPOSER "Elvis Costello"
FLAGS DCP
INDEX 01 00:00:00
FILE "08. My Most Beautiful Mistake.wav" WAVE
TRACK 08 AUDIO
TITLE "My Most Beautiful Mistake"
PERFORMER "Elvis Costello & The Imposters"
REM COMPOSER "Elvis Costello"
FLAGS DCP
INDEX 01 00:00:00
FILE "09. Magnificent Hurt.wav" WAVE
TRACK 09 AUDIO
TITLE "Magnificent Hurt"
PERFORMER "Elvis Costello & The Imposters"
REM COMPOSER "Elvis Costello"
FLAGS DCP
INDEX 01 00:00:00
FILE "10. The Man You Love to Hate.wav" WAVE
TRACK 10 AUDIO
TITLE "The Man You Love to Hate"
PERFORMER "Elvis Costello & The Imposters"
REM COMPOSER "Elvis Costello"
FLAGS DCP
INDEX 01 00:00:00
FILE "11. The Death of Magic Thinking.wav" WAVE
TRACK 11 AUDIO
TITLE "The Death of Magic Thinking"
PERFORMER "Elvis Costello & The Imposters"
REM COMPOSER "Elvis Costello"
FLAGS DCP
INDEX 01 00:00:00
FILE "12. Trick Out the Truth.wav" WAVE
TRACK 12 AUDIO
TITLE "Trick Out the Truth"
PERFORMER "Elvis Costello & The Imposters"
REM COMPOSER "Elvis Costello"
FLAGS DCP
INDEX 01 00:00:00
FILE "13. Mr. Crescent.wav" WAVE
TRACK 13 AUDIO
TITLE "Mr. Crescent"
PERFORMER "Elvis Costello & The Imposters"
REM COMPOSER "Elvis Costello"
FLAGS DCP
INDEX 01 00:00:00

Этот торрент недоступен для скачивания без регистрации, однако доступен по публичной magnet-ссылке (источники с публичных трекеров). Перед использованием ссылки прочтите, пожалуйста Пользовательское соглашение, а также как можно дольше оставайтесь на раздаче! Для того, чтобы скачать сам торрент-файл (который видит больше источников), а также для того, чтобы поблагодарить релизера, вам необходимо зарегистрироваться. Если регистрироваться лень - вы можете также попробовать скачать релиз по нашим партнерским ссылкам ниже. Кроме того, зарегистрированным пользователям не показывается всплывающая реклама при скачивании.

[underver.se].t233275.torrent
Трекер: Зарегистрирован   [ 17.01.2022 16:34 ]  
Статус: проверено (by Бишеп at 17.01.2022 16:34)
Поблагодарили: пока никто не поблагодарил...
Тип торрента: публичный - доступные источники с открытых трекеров: 
Размер: 597 MB (занимает 0.13 DVDR, для записи нужно 1 болванка DVDR/RW)
 
 

Яндекс.Метрика powered by Sphinx


В Н И М А Н И Е
Сайт не распространяет и не хранит электронные версии произведений, а лишь бесплатно и без коммерческой выгоды (не требуя взамен платы,
SMS и т.д.) предоставляет доступ к создаваемому пользователями каталогу ссылок на торрент-файлы, которые содержат только списки хеш-сумм.
Убедительная просьба с жалобами обращаться напрямую к пользователю, разместившему торрент файл.

Вверх