Loading...
Error

(NeoProgressive) Anima – Tempus Stetisse (1993) [FLAC (Image+.cue), lossless]

Статистика раздачи
Размер:  284 MB   |    Зарегистрирован:  8 месяцев   |    Скачан:  1 раз

Полного источника не было: 3 месяца 25 дней

Сидов:  0  |  0 KB/s  ]   Личеров:  0  |  0 KB/s  ]

* - сиды/пиры с внешних источников

   
 
Автор Сообщение

Rsa2 Пол:Муж

17-Янв-2022 16:48

Anima – Tempus Stetisse

Жанр: NeoProgressive
Год выпуска: 1993
Носитель: CD
Производитель: Brazil Jade Records – JRD 2001
Аудиокодек: FLAC
Тип рипа: Image+.cue
Битрейт: lossless
Продолжительность: 00:45:08

Треклист:

01 Little Boy's Dreams 8:40
02 Leviathan 5:38
03 Ariel 5:11
04 Reflections 8:05
05 Snow Kiss 6:53
06 Seasons 10:38
Exact Audio Copy V1.0 beta 2 from 29. April 2011 

Отчёт EAC об извлечении, выполненном 5. ноября 2011, 17:50

Anima / Tempus Stetisse

Дисковод: ATAPI iHAP122 W Adapter: 3 ID: 1

Режим чтения : Достоверность
Использование точного потока : Да
Отключение кэша аудио : Да
Использование указателей C2 : Нет

Коррекция смещения при чтении : 6
Способность читать области Lead-in и Lead-out : Нет
Заполнение пропущенных сэмплов тишиной : Да
Удаление блоков с тишиной в начале и конце : Нет
При вычислениях CRC использовались нулевые сэмплы : Нет
Интерфейс : Установленный внешний ASPI-интерфейс

Выходной формат : Внутренние WAV-операции
Формат сэмплов : 44.100 Гц; 16 бит; стерео

TOC извлечённого CD

Трек | Старт | Длительность | Начальный сектор | Конечный сектор
---------------------------------------------------------------------
1 | 0:00.32 | 8:40.65 | 32 | 39096
2 | 8:41.22 | 5:38.33 | 39097 | 64479
3 | 14:19.55 | 5:11.10 | 64480 | 87814
4 | 19:30.65 | 8:05.15 | 87815 | 124204
5 | 27:36.05 | 6:53.70 | 124205 | 155249
6 | 34:30.00 | 10:38.05 | 155250 | 203104

Характеристики диапазона извлечения и сообщения об ошибках

Выбранный диапазон

Имя файла D:\obraz\Anima - Tempus Stetisse\Anima - Tempus Stetisse.wav

Пиковый уровень 100.0 %
Скорость извлечения 2.9 X
Качество диапазона 100.0 %
CRC теста F750A643
CRC копии F750A643
Копирование... OK

Ошибок не произошло

AccurateRip: сводка
Трек 1 отсутствует в базе данных
Трек 2 отсутствует в базе данных
Трек 3 отсутствует в базе данных
Трек 4 отсутствует в базе данных
Трек 5 отсутствует в базе данных
Трек 6 отсутствует в базе данных
Ни одного трека нет в базе AccurateRip

Конец отчёта

==== Контрольная сумма отчёта D9C50373DAC065280B5A23B24BAA3CC42E118AF3D62E2B22D1CA00DA4547C7B9 ====
REM GENRE "Progressive Rock" 
REM DATE 1992
REM DISCID 450A9406
REM COMMENT "ExactAudioCopy v1.0b2"
CATALOG 0000000000000
PERFORMER "Anima"
TITLE "Tempus Stetisse"
FILE "Anima - Tempus Stetisse.wav" WAVE
TRACK 01 AUDIO
TITLE "Little Boy's Dreams"
PERFORMER "Anima"
INDEX 00 00:00:00
INDEX 01 00:00:32
TRACK 02 AUDIO
TITLE "Leviathan"
PERFORMER "Anima"
INDEX 00 08:40:22
INDEX 01 08:41:22
TRACK 03 AUDIO
TITLE "Ariel"
PERFORMER "Anima"
INDEX 01 14:19:55
TRACK 04 AUDIO
TITLE "Reflection"
PERFORMER "Anima"
INDEX 01 19:30:65
TRACK 05 AUDIO
TITLE "Snow Kiss"
PERFORMER "Anima"
INDEX 00 27:34:07
INDEX 01 27:36:05
TRACK 06 AUDIO
TITLE "Seasons"
PERFORMER "Anima"
INDEX 00 34:29:47
INDEX 01 34:30:00

Этот торрент недоступен для скачивания без регистрации, однако доступен по публичной magnet-ссылке (источники с публичных трекеров). Перед использованием ссылки прочтите, пожалуйста Пользовательское соглашение, а также как можно дольше оставайтесь на раздаче! Для того, чтобы скачать сам торрент-файл (который видит больше источников), а также для того, чтобы поблагодарить релизера, вам необходимо зарегистрироваться. Если регистрироваться лень - вы можете также попробовать скачать релиз по нашим партнерским ссылкам ниже. Кроме того, зарегистрированным пользователям не показывается всплывающая реклама при скачивании.

[underver.se].t233278.torrent
Трекер: Зарегистрирован   [ 17.01.2022 16:48 ]  
Статус: проверено (by Phobos and Deimos at 17.01.2022 16:57)
Поблагодарили: пока никто не поблагодарил...
Тип торрента: публичный - доступные источники с открытых трекеров: 
Размер: 284 MB (занимает 0.06 DVDR, для записи нужно 1 болванка DVDR/RW)
 
 

Яндекс.Метрика powered by Sphinx


В Н И М А Н И Е
Сайт не распространяет и не хранит электронные версии произведений, а лишь бесплатно и без коммерческой выгоды (не требуя взамен платы,
SMS и т.д.) предоставляет доступ к создаваемому пользователями каталогу ссылок на торрент-файлы, которые содержат только списки хеш-сумм.
Убедительная просьба с жалобами обращаться напрямую к пользователю, разместившему торрент файл.

Вверх