Loading...
Error

(Progressive Rock) Anima – Singularities (1996) [APE (Image+.cue), lossless]

Статистика раздачи
Размер:  309 MB   |    Зарегистрирован:  8 месяцев   |    Скачан:  2 раза

Полного источника не было: 1 месяц 11 дней

Сидов:  0  |  0 KB/s  ]   Личеров:  0  |  0 KB/s  ]

* - сиды/пиры с внешних источников

   
 
Автор Сообщение

Rsa2 Пол:Муж

17-Янв-2022 16:58

Anima – Singularities

Жанр: Progressive Rock
Год выпуска: 1996
Носитель: CD
Производитель: US Wounded Bird Records – PRW 033
Аудиокодек: APE
Тип рипа: Image+.cue
Битрейт: lossless
Продолжительность: 00:48:23

Треклист:

01 Big Bang
02 Tunnel Of Time
03 Black Hole
04 Candle Of Touch
05 Don´t Know What I Like
Exact Audio Copy V0.99 prebeta 1 from 25. May 2007 

EAC extraction logfile from 11. February 2011, 11:36

Anima / Singularities

Used drive : HL-DT-STDVD-RAM GSA-H58N Adapter: 0 ID: 0

Read mode : Secure
Utilize accurate stream : Yes
Defeat audio cache : Yes
Make use of C2 pointers : No

Read offset correction : 102
Overread into Lead-In and Lead-Out : Yes
Fill up missing offset samples with silence : Yes
Delete leading and trailing silent blocks : No
Used interface : Native Win32 interface for Win NT & 2000

Used output format : Monkey's Audio Lossless Encoder
Selected bitrate : Extra High Lossless Compression
Quality : High
Add ID3 tag : Yes
Command line compressor : C:\Arquivos de programas\Monkey's Audio\MAC.exe

TOC of the extracted CD

Track | Start | Length | Start sector | End sector
---------------------------------------------------------
1 | 0:00.00 | 8:03.45 | 0 | 36269
2 | 8:03.45 | 15:33.32 | 36270 | 106276
3 | 23:37.02 | 11:56.43 | 106277 | 160019
4 | 35:33.45 | 6:32.12 | 160020 | 189431
5 | 42:05.57 | 6:16.65 | 189432 | 217696

Range status and errors

Selected range

Filename C:\0 musica\torrent.ru up 2\Singularities.wav

Peak level 99.9 %
Range quality 99.9 %
Test CRC 01011935
Copy CRC 01011935
Copy OK

No errors occurred

End of status report
REM GENRE "Progressive Rock" 
REM DATE 1996
REM DISCID 3D0B5605
REM COMMENT "ExactAudioCopy v0.99pb1"
PERFORMER "Anima"
TITLE "Singularities"
FILE "Singularities.ape" WAVE
TRACK 01 AUDIO
TITLE "Big Bang"
PERFORMER "Anima"
FLAGS DCP
INDEX 01 00:00:00
TRACK 02 AUDIO
TITLE "Tunnel of Light"
PERFORMER "Anima"
FLAGS DCP
INDEX 00 08:00:00
INDEX 01 08:03:45
TRACK 03 AUDIO
TITLE "Black Hole"
PERFORMER "Anima"
FLAGS DCP
INDEX 00 23:34:20
INDEX 01 23:37:02
TRACK 04 AUDIO
TITLE "Candle of Touch"
PERFORMER "Anima"
FLAGS DCP
INDEX 00 35:29:69
INDEX 01 35:33:45
TRACK 05 AUDIO
TITLE "Don't Know What I Like"
PERFORMER "Anima"
FLAGS DCP
INDEX 00 42:01:39
INDEX 01 42:05:57

Этот торрент недоступен для скачивания без регистрации, однако доступен по публичной magnet-ссылке (источники с публичных трекеров). Перед использованием ссылки прочтите, пожалуйста Пользовательское соглашение, а также как можно дольше оставайтесь на раздаче! Для того, чтобы скачать сам торрент-файл (который видит больше источников), а также для того, чтобы поблагодарить релизера, вам необходимо зарегистрироваться. Если регистрироваться лень - вы можете также попробовать скачать релиз по нашим партнерским ссылкам ниже. Кроме того, зарегистрированным пользователям не показывается всплывающая реклама при скачивании.

[underver.se].t233279.torrent
Трекер: Зарегистрирован   [ 17.01.2022 16:58 ]  
Статус: проверено (by Robbertta at 17.01.2022 17:37)
Поблагодарили: пока никто не поблагодарил...
Тип торрента: публичный - доступные источники с открытых трекеров: 
Размер: 309 MB (занимает 0.07 DVDR, для записи нужно 1 болванка DVDR/RW)
 
 

Яндекс.Метрика powered by Sphinx


В Н И М А Н И Е
Сайт не распространяет и не хранит электронные версии произведений, а лишь бесплатно и без коммерческой выгоды (не требуя взамен платы,
SMS и т.д.) предоставляет доступ к создаваемому пользователями каталогу ссылок на торрент-файлы, которые содержат только списки хеш-сумм.
Убедительная просьба с жалобами обращаться напрямую к пользователю, разместившему торрент файл.

Вверх