Loading...
Error

(Progressive Rock) Anima Dominum – The Book Of Comedy (1999) [FLAC (Image+.cue), lossless]

Статистика раздачи
Размер:  376 MB   |    Зарегистрирован:  8 месяцев   |    Скачан:  1 раз

Полного источника не было: 6 месяцев

Сидов:  0  |  0 KB/s  ]   Личеров:  0  |  0 KB/s  ]

* - сиды/пиры с внешних источников

   
 
Автор Сообщение

Rsa2 Пол:Муж

17-Янв-2022 17:07

Anima Dominum – The Book Of Comedy

Жанр: Progressive Rock
Год выпуска: 1999
Носитель: CD
Производитель: Brazil Not On Label – ANIM003
Аудиокодек: FLAC
Тип рипа: Image+.cue
Битрейт: lossless
Продолжительность: 00:56:25

Треклист:

01 The Abbeyroad 2:23
02 Conference 2:54
03 Sheep And Goats 15:19
04 1327 11:06
05 The Cross... 1:23
06 ... And The Rose 5:43
07 Exile 5:20
08 Season Song 4:23
09 Leviathan 7:24
Exact Audio Copy V1.0 beta 2 from 29. April 2011 

Отчёт EAC об извлечении, выполненном 4. ноября 2011, 19:56

Anima Dominum / The Book Of Comedy

Дисковод: ATAPI iHAP122 W Adapter: 3 ID: 1

Режим чтения : Достоверность
Использование точного потока : Да
Отключение кэша аудио : Да
Использование указателей C2 : Нет

Коррекция смещения при чтении : 6
Способность читать области Lead-in и Lead-out : Нет
Заполнение пропущенных сэмплов тишиной : Да
Удаление блоков с тишиной в начале и конце : Нет
При вычислениях CRC использовались нулевые сэмплы : Нет
Интерфейс : Установленный внешний ASPI-интерфейс

Выходной формат : Внутренние WAV-операции
Формат сэмплов : 44.100 Гц; 16 бит; стерео

TOC извлечённого CD

Трек | Старт | Длительность | Начальный сектор | Конечный сектор
---------------------------------------------------------------------
1 | 0:00.00 | 2:23.34 | 0 | 10758
2 | 2:23.34 | 2:55.06 | 10759 | 23889
3 | 5:18.40 | 15:24.27 | 23890 | 93216
4 | 20:42.67 | 11:11.66 | 93217 | 143607
5 | 31:54.58 | 1:23.46 | 143608 | 149878
6 | 33:18.29 | 5:47.21 | 149879 | 175924
7 | 39:05.50 | 5:25.38 | 175925 | 200337
8 | 44:31.13 | 4:28.25 | 200338 | 220462
9 | 48:59.38 | 7:24.47 | 220463 | 253809

Характеристики диапазона извлечения и сообщения об ошибках

Выбранный диапазон

Имя файла D:\obraz\Anima Dominum - The Book of Comedy\01 On My Feet Again.wav

Пиковый уровень 98.3 %
Скорость извлечения 3.1 X
Качество диапазона 100.0 %
CRC теста C67E9C40
CRC копии C67E9C40
Копирование... OK

Ошибок не произошло

AccurateRip: сводка
Трек 1 отсутствует в базе данных
Трек 2 отсутствует в базе данных
Трек 3 отсутствует в базе данных
Трек 4 отсутствует в базе данных
Трек 5 отсутствует в базе данных
Трек 6 отсутствует в базе данных
Трек 7 отсутствует в базе данных
Трек 8 отсутствует в базе данных
Трек 9 отсутствует в базе данных
Ни одного трека нет в базе AccurateRip

Конец отчёта

==== Контрольная сумма отчёта 3F1A5A0DE4EF4B9F9D328BF75310FF69BA7ABEC87AE3CF9B31F4A769748DEC49 ====
REM GENRE "Progressive Rock" 
REM DATE 1999
REM DISCID 610D3809
REM COMMENT "ExactAudioCopy v1.0b2"
PERFORMER "Anima Dominum"
TITLE "The Book Of Comedy"
FILE "01 On My Feet Again.wav" WAVE
TRACK 01 AUDIO
TITLE "The Abbeyroad"
PERFORMER "Anima Dominum"
INDEX 01 00:00:00
TRACK 02 AUDIO
TITLE "Conference"
PERFORMER "Anima Dominum"
INDEX 01 02:23:34
TRACK 03 AUDIO
TITLE "Sheep And Goats"
PERFORMER "Anima Dominum"
INDEX 01 05:18:40
TRACK 04 AUDIO
TITLE "1327"
PERFORMER "Anima Dominum"
INDEX 00 20:38:22
INDEX 01 20:42:67
TRACK 05 AUDIO
TITLE "The Cross..."
PERFORMER "Anima Dominum"
INDEX 00 31:49:74
INDEX 01 31:54:58
TRACK 06 AUDIO
TITLE "And The Rose"
PERFORMER "Anima Dominum"
INDEX 01 33:18:29
TRACK 07 AUDIO
TITLE "Exile"
PERFORMER "Anima Dominum"
INDEX 00 39:02:10
INDEX 01 39:05:50
TRACK 08 AUDIO
TITLE "Season Song"
PERFORMER "Anima Dominum"
INDEX 00 44:26:35
INDEX 01 44:31:13
TRACK 09 AUDIO
TITLE "Leviathan"
PERFORMER "Anima Dominum"
INDEX 00 48:54:67
INDEX 01 48:59:38

Этот торрент недоступен для скачивания без регистрации, однако доступен по публичной magnet-ссылке (источники с публичных трекеров). Перед использованием ссылки прочтите, пожалуйста Пользовательское соглашение, а также как можно дольше оставайтесь на раздаче! Для того, чтобы скачать сам торрент-файл (который видит больше источников), а также для того, чтобы поблагодарить релизера, вам необходимо зарегистрироваться. Если регистрироваться лень - вы можете также попробовать скачать релиз по нашим партнерским ссылкам ниже. Кроме того, зарегистрированным пользователям не показывается всплывающая реклама при скачивании.

[underver.se].t233280.torrent
Трекер: Зарегистрирован   [ 17.01.2022 17:07 ]  
Статус: проверено (by Robbertta at 17.01.2022 17:37)
Поблагодарили: пока никто не поблагодарил...
Тип торрента: публичный - доступные источники с открытых трекеров: 
Размер: 376 MB (занимает 0.08 DVDR, для записи нужно 1 болванка DVDR/RW)
 
 

Яндекс.Метрика powered by Sphinx


В Н И М А Н И Е
Сайт не распространяет и не хранит электронные версии произведений, а лишь бесплатно и без коммерческой выгоды (не требуя взамен платы,
SMS и т.д.) предоставляет доступ к создаваемому пользователями каталогу ссылок на торрент-файлы, которые содержат только списки хеш-сумм.
Убедительная просьба с жалобами обращаться напрямую к пользователю, разместившему торрент файл.

Вверх