Loading...
Error

(Progressive Rock) Asa De Luz – The Link (1998) [FLAC (Tracks+.cue), lossless]

Статистика раздачи
Размер:  302 MB   |    Зарегистрирован:  6 месяцев   |    Скачан:  0 раз

Полного источника не было: Никогда

Сидов:  0  |  0 KB/s  ]   Личеров:  0  |  0 KB/s  ]

* - сиды/пиры с внешних источников

   
 
Автор Сообщение

Rsa2 Пол:Муж

18-Янв-2022 04:53

Asa De Luz – The Link

Жанр: Progressive Rock
Год выпуска: 1998
Носитель: CD
Производитель: Brazil Progressive Rock Worldwide – PRW046
Аудиокодек: FLAC
Тип рипа: Tracks+.cue
Битрейт: lossless
Продолжительность: 00:53:39

Треклист:

01 Deep 5:06
02 The Link 6:17
03 Child Dream 3:23
04 The Distance 3:35
05 All For One 4:00
06 Memories Of A Great Love 6:22
07 Tales Of Tomorrow 4:30
08 Todo Sagrado 6:51
09 Canção Perdida 6:09
10 Dual 5:13
11 The Link (Short Version) 2:37
Exact Audio Copy V1.0 beta 3 from 29. August 2011 

EAC extraction logfile from 29. February 2012, 15:41

Asa de Luz / The Link

Used drive : ATAPI iHAS324 Y Adapter: 4 ID: 0

Read mode : Secure
Utilize accurate stream : Yes
Defeat audio cache : Yes
Make use of C2 pointers : No

Read offset correction : 48
Overread into Lead-In and Lead-Out : No
Fill up missing offset samples with silence : Yes
Delete leading and trailing silent blocks : No
Null samples used in CRC calculations : Yes
Used interface : Native Win32 interface for Win NT & 2000
Gap handling : Appended to previous track

Used output format : User Defined Encoder
Selected bitrate : 896 kBit/s
Quality : High
Add ID3 tag : No
Command line compressor : C:\Program Files\Exact Audio Copy\flac.exe
Additional command line options : -8 -V -T "ARTIST=%artist%" -T "TITLE=%title%" -T "ALBUM=%albumtitle%" -T "DATE=%year%" -T "TRACKNUMBER=%tracknr%" -T "GENRE=%genre%" -T "PERFORMER=%albuminterpret%" -T "COMPOSER=%composer%" %haslyrics%--tag-from-file=LYRICS="%lyricsfile%"%haslyrics% -T "ALBUMARTIST=%albumartist%" -T "DISCNUMBER=%cdnumber%" -T "TOTALDISCS=%totalcds%" -T "TOTALTRACKS=%numtracks%" -T "COMMENT=%comment%" %source% -o %dest%

TOC of the extracted CD

Track | Start | Length | Start sector | End sector
---------------------------------------------------------
1 | 0:00.00 | 5:11.00 | 0 | 23324
2 | 5:11.00 | 6:19.64 | 23325 | 51813
3 | 11:30.64 | 3:25.73 | 51814 | 67261
4 | 14:56.62 | 3:36.48 | 67262 | 83509
5 | 18:33.35 | 4:02.55 | 83510 | 101714
6 | 22:36.15 | 6:24.20 | 101715 | 130534
7 | 29:00.35 | 4:37.37 | 130535 | 151346
8 | 33:37.72 | 6:51.68 | 151347 | 182239
9 | 40:29.65 | 6:11.30 | 182240 | 210094
10 | 46:41.20 | 5:15.12 | 210095 | 233731
11 | 51:56.32 | 2:41.50 | 233732 | 245856

Track 1

Filename C:\EAC\01 - Deep.wav

Pre-gap length 0:00:02.00

Peak level 100.0 %
Extraction speed 2.4 X
Track quality 100.0 %
Test CRC 1A219C06
Copy CRC 1A219C06
Track not present in AccurateRip database
Copy OK

Track 2

Filename C:\EAC\02 - The link.wav

Pre-gap length 0:00:03.08

Peak level 99.8 %
Extraction speed 2.9 X
Track quality 100.0 %
Test CRC D051AC72
Copy CRC D051AC72
Track not present in AccurateRip database
Copy OK

Track 3

Filename C:\EAC\03 - Child dream.wav

Pre-gap length 0:00:01.69

Peak level 100.0 %
Extraction speed 2.9 X
Track quality 100.0 %
Test CRC C9616BD0
Copy CRC C9616BD0
Track not present in AccurateRip database
Copy OK

Track 4

Filename C:\EAC\04 - The distance.wav

Pre-gap length 0:00:01.45

Peak level 99.4 %
Extraction speed 3.1 X
Track quality 100.0 %
Test CRC CA9DD991
Copy CRC CA9DD991
Track not present in AccurateRip database
Copy OK

Track 5

Filename C:\EAC\05 - All for one.wav

Pre-gap length 0:00:01.58

Peak level 99.5 %
Extraction speed 3.4 X
Track quality 100.0 %
Test CRC E1E97CA0
Copy CRC E1E97CA0
Track not present in AccurateRip database
Copy OK

Track 6

Filename C:\EAC\06 - Memories of a great love.wav

Pre-gap length 0:00:02.68

Peak level 98.4 %
Extraction speed 3.8 X
Track quality 100.0 %
Test CRC 7A1DA4D5
Copy CRC 7A1DA4D5
Track not present in AccurateRip database
Copy OK

Track 7

Filename C:\EAC\07 - Tales of tomorrow.wav

Pre-gap length 0:00:04.48

Peak level 99.1 %
Extraction speed 3.9 X
Track quality 100.0 %
Test CRC 0C05CC15
Copy CRC 0C05CC15
Track not present in AccurateRip database
Copy OK

Track 8

Filename C:\EAC\08 - Todo sagrado.wav

Pre-gap length 0:00:04.22

Peak level 99.4 %
Extraction speed 4.3 X
Track quality 100.0 %
Test CRC 255F4E7C
Copy CRC 255F4E7C
Track not present in AccurateRip database
Copy OK

Track 9

Filename C:\EAC\09 - Canção perdida.wav

Pre-gap length 0:00:02.25

Peak level 99.4 %
Extraction speed 4.5 X
Track quality 100.0 %
Test CRC F74FB55E
Copy CRC F74FB55E
Track not present in AccurateRip database
Copy OK

Track 10

Filename C:\EAC\10 - Dual.wav

Pre-gap length 0:00:02.55

Peak level 99.8 %
Extraction speed 4.6 X
Track quality 100.0 %
Test CRC 20D04177
Copy CRC 20D04177
Track not present in AccurateRip database
Copy OK

Track 11

Filename C:\EAC\11 - The link (edit).wav

Pre-gap length 0:00:01.45

Peak level 99.4 %
Extraction speed 3.7 X
Track quality 99.9 %
Test CRC BC0728B1
Copy CRC BC0728B1
Track not present in AccurateRip database
Copy OK

None of the tracks are present in the AccurateRip database

No errors occurred

End of status report

==== Log checksum 885FDE380566B6C3DCF8FFF842AA944C99CD73F88B0DE24C15795789B73B150D ====

------------------------------------------------------------

Exact Audio Copy V1.0 beta 3 from 29. August 2011

EAC extraction logfile from 29. February 2012, 15:41

Asa de Luz / The Link

Used drive : ATAPI iHAS324 Y Adapter: 4 ID: 0

Read mode : Secure
Utilize accurate stream : Yes
Defeat audio cache : Yes
Make use of C2 pointers : No

Read offset correction : 48
Overread into Lead-In and Lead-Out : No
Fill up missing offset samples with silence : Yes
Delete leading and trailing silent blocks : No
Null samples used in CRC calculations : Yes
Used interface : Native Win32 interface for Win NT & 2000
Gap handling : Appended to previous track

Used output format : User Defined Encoder
Selected bitrate : 896 kBit/s
Quality : High
Add ID3 tag : No
Command line compressor : C:\Program Files\Exact Audio Copy\flac.exe
Additional command line options : -8 -V -T "ARTIST=%artist%" -T "TITLE=%title%" -T "ALBUM=%albumtitle%" -T "DATE=%year%" -T "TRACKNUMBER=%tracknr%" -T "GENRE=%genre%" -T "PERFORMER=%albuminterpret%" -T "COMPOSER=%composer%" %haslyrics%--tag-from-file=LYRICS="%lyricsfile%"%haslyrics% -T "ALBUMARTIST=%albumartist%" -T "DISCNUMBER=%cdnumber%" -T "TOTALDISCS=%totalcds%" -T "TOTALTRACKS=%numtracks%" -T "COMMENT=%comment%" %source% -o %dest%

TOC of the extracted CD

Track | Start | Length | Start sector | End sector
---------------------------------------------------------
1 | 0:00.00 | 5:11.00 | 0 | 23324
2 | 5:11.00 | 6:19.64 | 23325 | 51813
3 | 11:30.64 | 3:25.73 | 51814 | 67261
4 | 14:56.62 | 3:36.48 | 67262 | 83509
5 | 18:33.35 | 4:02.55 | 83510 | 101714
6 | 22:36.15 | 6:24.20 | 101715 | 130534
7 | 29:00.35 | 4:37.37 | 130535 | 151346
8 | 33:37.72 | 6:51.68 | 151347 | 182239
9 | 40:29.65 | 6:11.30 | 182240 | 210094
10 | 46:41.20 | 5:15.12 | 210095 | 233731
11 | 51:56.32 | 2:41.50 | 233732 | 245856

Track 1

Filename C:\EAC\01 - Deep.wav

Pre-gap length 0:00:02.00

Peak level 100.0 %
Extraction speed 2.4 X
Track quality 100.0 %
Test CRC 1A219C06
Copy CRC 1A219C06
Track not present in AccurateRip database
Copy OK

Track 2

Filename C:\EAC\02 - The link.wav

Pre-gap length 0:00:03.08

Peak level 99.8 %
Extraction speed 2.9 X
Track quality 100.0 %
Test CRC D051AC72
Copy CRC D051AC72
Track not present in AccurateRip database
Copy OK

Track 3

Filename C:\EAC\03 - Child dream.wav

Pre-gap length 0:00:01.69

Peak level 100.0 %
Extraction speed 2.9 X
Track quality 100.0 %
Test CRC C9616BD0
Copy CRC C9616BD0
Track not present in AccurateRip database
Copy OK

Track 4

Filename C:\EAC\04 - The distance.wav

Pre-gap length 0:00:01.45

Peak level 99.4 %
Extraction speed 3.1 X
Track quality 100.0 %
Test CRC CA9DD991
Copy CRC CA9DD991
Track not present in AccurateRip database
Copy OK

Track 5

Filename C:\EAC\05 - All for one.wav

Pre-gap length 0:00:01.58

Peak level 99.5 %
Extraction speed 3.4 X
Track quality 100.0 %
Test CRC E1E97CA0
Copy CRC E1E97CA0
Track not present in AccurateRip database
Copy OK

Track 6

Filename C:\EAC\06 - Memories of a great love.wav

Pre-gap length 0:00:02.68

Peak level 98.4 %
Extraction speed 3.8 X
Track quality 100.0 %
Test CRC 7A1DA4D5
Copy CRC 7A1DA4D5
Track not present in AccurateRip database
Copy OK

Track 7

Filename C:\EAC\07 - Tales of tomorrow.wav

Pre-gap length 0:00:04.48

Peak level 99.1 %
Extraction speed 3.9 X
Track quality 100.0 %
Test CRC 0C05CC15
Copy CRC 0C05CC15
Track not present in AccurateRip database
Copy OK

Track 8

Filename C:\EAC\08 - Todo sagrado.wav

Pre-gap length 0:00:04.22

Peak level 99.4 %
Extraction speed 4.3 X
Track quality 100.0 %
Test CRC 255F4E7C
Copy CRC 255F4E7C
Track not present in AccurateRip database
Copy OK

Track 9

Filename C:\EAC\09 - Canção perdida.wav

Pre-gap length 0:00:02.25

Peak level 99.4 %
Extraction speed 4.5 X
Track quality 100.0 %
Test CRC F74FB55E
Copy CRC F74FB55E
Track not present in AccurateRip database
Copy OK

Track 10

Filename C:\EAC\10 - Dual.wav

Pre-gap length 0:00:02.55

Peak level 99.8 %
Extraction speed 4.6 X
Track quality 100.0 %
Test CRC 20D04177
Copy CRC 20D04177
Track not present in AccurateRip database
Copy OK

Track 11

Filename C:\EAC\11 - The link (edit).wav

Pre-gap length 0:00:01.45

Peak level 99.4 %
Extraction speed 3.7 X
Track quality 99.9 %
Test CRC BC0728B1
Copy CRC BC0728B1
Track not present in AccurateRip database
Copy OK

None of the tracks are present in the AccurateRip database

No errors occurred

End of status report

==== Log checksum 885FDE380566B6C3DCF8FFF842AA944C99CD73F88B0DE24C15795789B73B150D ====
REM GENRE "Progressive Rock" 
REM DATE 1998
REM DISCID 8A0CCE0B
REM COMMENT "ExactAudioCopy v1.0b3"
PERFORMER "Asa de Luz"
TITLE "The Link"
FILE "01 - Deep.wav" WAVE
TRACK 01 AUDIO
TITLE "Deep"
PERFORMER "Asa de Luz"
INDEX 01 00:00:00
TRACK 02 AUDIO
TITLE "The link "
PERFORMER "Asa de Luz"
INDEX 00 05:07:67
FILE "02 - The link.wav" WAVE
INDEX 01 00:00:00
TRACK 03 AUDIO
TITLE "Child dream"
PERFORMER "Asa de Luz"
INDEX 00 06:17:70
FILE "03 - Child dream.wav" WAVE
INDEX 01 00:00:00
TRACK 04 AUDIO
TITLE "The distance"
PERFORMER "Asa de Luz"
INDEX 00 03:24:28
FILE "04 - The distance.wav" WAVE
INDEX 01 00:00:00
TRACK 05 AUDIO
TITLE "All for one"
PERFORMER "Asa de Luz"
INDEX 00 03:34:65
FILE "05 - All for one.wav" WAVE
INDEX 01 00:00:00
TRACK 06 AUDIO
TITLE "Memories of a great love"
PERFORMER "Asa de Luz"
INDEX 00 03:59:62
FILE "06 - Memories of a great love.wav" WAVE
INDEX 01 00:00:00
TRACK 07 AUDIO
TITLE "Tales of tomorrow"
PERFORMER "Asa de Luz"
INDEX 00 06:19:47
FILE "07 - Tales of tomorrow.wav" WAVE
INDEX 01 00:00:00
TRACK 08 AUDIO
TITLE "Todo sagrado"
PERFORMER "Asa de Luz"
INDEX 00 04:33:15
FILE "08 - Todo sagrado.wav" WAVE
INDEX 01 00:00:00
TRACK 09 AUDIO
TITLE "Cancao perdida"
PERFORMER "Asa de Luz"
INDEX 00 06:49:43
FILE "09 - Cancao perdida.wav" WAVE
INDEX 01 00:00:00
TRACK 10 AUDIO
TITLE "Dual"
PERFORMER "Asa de Luz"
INDEX 00 06:08:50
FILE "10 - Dual.wav" WAVE
INDEX 01 00:00:00
TRACK 11 AUDIO
TITLE "The link (edit)"
PERFORMER "Asa de Luz"
INDEX 00 05:13:42
FILE "11 - The link (edit).wav" WAVE
INDEX 01 00:00:00

Этот торрент недоступен для скачивания без регистрации, однако доступен по публичной magnet-ссылке (источники с публичных трекеров). Перед использованием ссылки прочтите, пожалуйста Пользовательское соглашение, а также как можно дольше оставайтесь на раздаче! Для того, чтобы скачать сам торрент-файл (который видит больше источников), а также для того, чтобы поблагодарить релизера, вам необходимо зарегистрироваться. Если регистрироваться лень - вы можете также попробовать скачать релиз по нашим партнерским ссылкам ниже. Кроме того, зарегистрированным пользователям не показывается всплывающая реклама при скачивании.

[underver.se].t233300.torrent
Трекер: Зарегистрирован   [ 18.03.2022 18:35 ]  
Статус: проверено (by Бишеп at 18.03.2022 18:35)
Поблагодарили: пока никто не поблагодарил...
Тип торрента: публичный - доступные источники с открытых трекеров: 
Размер: 302 MB (занимает 0.07 DVDR, для записи нужно 1 болванка DVDR/RW)
 
 

Яндекс.Метрика powered by Sphinx


В Н И М А Н И Е
Сайт не распространяет и не хранит электронные версии произведений, а лишь бесплатно и без коммерческой выгоды (не требуя взамен платы,
SMS и т.д.) предоставляет доступ к создаваемому пользователями каталогу ссылок на торрент-файлы, которые содержат только списки хеш-сумм.
Убедительная просьба с жалобами обращаться напрямую к пользователю, разместившему торрент файл.

Вверх