Loading...
Error

25 тополиных лет. Иванушки International (03.01.2022) [2022, Pop, HDTV, 1080i] Sub-Rus

Статистика раздачи
Размер:  5.76 GB   |    Зарегистрирован:  8 месяцев   |    Скачан:  6 раз

Полного источника не было: 1 месяц 7 дней

Сидов:  0  |  0 KB/s  ]   Личеров:  0  |  0 KB/s  ]

* - сиды/пиры с внешних источников

   
 
Автор Сообщение

cheloweck.dojdya Пол:Муж

23-Янв-2022 18:10

25 тополиных лет. Иванушки International


Жанр: Pop
Продолжительность: 01:51:00
Год выпуска: 2022

Описание: Четверть века на сцене! Этот праздник вместе с друзьями и поклонниками группа весело отметила в Москве в Crocus City Hall программой "25 тополиных лет"

Качество: HDTV 1080i
Контейнер: MKV
Видео кодек: H.264
Аудио кодек: MP2
Видео: 1920x1080 (16:9) 25.000 fps ~ 7 208 kbps
Аудио: MPEG Audio 2, 48000 kHz stereo 192 kbps
Субтитры: русские отключаемые: SRT
01. Миллионы огней
02. Тучи
03. Реви
04. Золотые облака
05. Два бездонных океана глаз
06. Безнадега точка ру
07. Колечко
08. Малина
09. Туман
10. Танцуй, пока танцуется
11. Капелька света
12. Облака
13. Где-то
14. Вселенная
15. Кукла
16. Беги, беги
17. Букет сирени
18. Снегири
19. Девчонка-девчоночка
20. Небо с группой Фабрика
21. Билетик в кино
22. Тополиный пух
23. Поверь, мне тоже очень жаль
 
General
Unique ID : 141339812765123766970927236383737333749 (0x6A550ECA4441515DE5C8E89B122347F5)
Complete name : L:\80\25 тополиных лет. Иванушки International 2022.01.03.mkv
Format : Matroska
Format version : Version 4
File size : 5.76 GiB
Duration : 1 h 51 min
Overall bit rate : 7 404 kb/s
Encoded date : UTC 2022-01-04 10:46:03
Writing application : mkvmerge v30.1.0 ('Forever And More') 64-bit
Writing library : libebml v1.3.6 + libmatroska v1.4.9

Video
ID : 1
Format : AVC
Format/Info : Advanced Video Codec
Format profile : [email protected]
Format settings : CABAC / 4 Ref Frames
Format settings, CABAC : Yes
Format settings, Reference fra : 4 frames
Codec ID : V_MPEG4/ISO/AVC
Duration : 1 h 51 min
Bit rate : 7 208 kb/s
Width : 1 920 pixels
Height : 1 080 pixels
Display aspect ratio : 16:9
Frame rate mode : Variable
Frame rate : 50.000 FPS
Original frame rate : 25.000 FPS
Standard : Component
Color space : YUV
Chroma subsampling : 4:2:0
Bit depth : 8 bits
Scan type : Interlaced
Scan type, store method : Separated fields
Scan order : Top Field First
Bits/(Pixel*Frame) : 0.070
Stream size : 5.60 GiB (97%)
Default : Yes
Forced : No
Color range : Limited
Color primaries : BT.709
Transfer characteristics : BT.709
Matrix coefficients : BT.709

Audio
ID : 2
Format : MPEG Audio
Format version : Version 1
Format profile : Layer 2
Codec ID : A_MPEG/L2
Codec ID/Hint : MP2
Duration : 1 h 51 min
Bit rate mode : Constant
Bit rate : 192 kb/s
Channel(s) : 2 channels
Sampling rate : 48.0 kHz
Frame rate : 41.667 FPS (1152 SPF)
Compression mode : Lossy
Stream size : 153 MiB (3%)
Language : Russian
Default : Yes
Forced : No

Text
ID : 3
Format : UTF-8
Codec ID : S_TEXT/UTF8
Codec ID/Info : UTF-8 Plain Text
Duration : 1 h 50 min
Bit rate : 113 b/s
Count of elements : 1616
Stream size : 92.2 KiB (0%)
Language : Russian
Default : Yes
Forced : No



Этот торрент недоступен для скачивания без регистрации, однако доступен по публичной magnet-ссылке (источники с публичных трекеров). Перед использованием ссылки прочтите, пожалуйста Пользовательское соглашение, а также как можно дольше оставайтесь на раздаче! Для того, чтобы скачать сам торрент-файл (который видит больше источников), а также для того, чтобы поблагодарить релизера, вам необходимо зарегистрироваться. Если регистрироваться лень - вы можете также попробовать скачать релиз по нашим партнерским ссылкам ниже. Кроме того, зарегистрированным пользователям не показывается всплывающая реклама при скачивании.

[underver.se].t233526.torrent
Трекер: Зарегистрирован   [ 23.01.2022 18:10 ]  
Статус: проверено (by Robbertta at 23.01.2022 18:49)
Поблагодарили: пока никто не поблагодарил...
Тип торрента: публичный - доступные источники с открытых трекеров: 
Размер: 5.76 GB (занимает 1.31 DVDR, для записи нужно 2 болванки DVDR/RW)
 
 

Яндекс.Метрика powered by Sphinx


В Н И М А Н И Е
Сайт не распространяет и не хранит электронные версии произведений, а лишь бесплатно и без коммерческой выгоды (не требуя взамен платы,
SMS и т.д.) предоставляет доступ к создаваемому пользователями каталогу ссылок на торрент-файлы, которые содержат только списки хеш-сумм.
Убедительная просьба с жалобами обращаться напрямую к пользователю, разместившему торрент файл.

Вверх