Loading...
Error

(Hard Rock) Ellison – Ellison (1971) (1995) [FLAC (Tracks+.cue), lossless]

Статистика раздачи
Размер:  175 MB   |    Зарегистрирован:  8 месяцев   |    Скачан:  0 раз

Полного источника не было: 22 дня

Сидов:  0  |  0 KB/s  ]   Личеров:  0  |  0 KB/s  ]

* - сиды/пиры с внешних источников

   
 
Автор Сообщение

Rsa2 Пол:Муж

26-Янв-2022 09:38

Ellison – Ellison (1971)

Жанр: Hard Rock
Год выпуска: 1995
Носитель: CD
Производитель: Germany Black Rose Records – BR 103
Аудиокодек: FLAC
Тип рипа: Tracks+.cue
Битрейт: lossless
Продолжительность: 00:28:44

Треклист:

01 Unchanged World 3:32
02 Seal A Beam Bow 4:25
03 Satanic 1:59
04 Winter Slutch 3:58
05 Strawberry Rain 5:19
06 Untruth Story 6:00
07 Freedom 3:09
Exact Audio Copy V1.5 from 20. February 2020 

EAC extraction logfile from 26. January 2022, 14:31

Ellison / Ellison

Used drive : HL-DT-STBD-RE BH16NS60 Adapter: 1 ID: 0

Read mode : Secure
Utilize accurate stream : Yes
Defeat audio cache : Yes
Make use of C2 pointers : No

Read offset correction : 6
Overread into Lead-In and Lead-Out : No
Fill up missing offset samples with silence : Yes
Delete leading and trailing silent blocks : No
Null samples used in CRC calculations : Yes
Used interface : Native Win32 interface for Win NT & 2000
Gap handling : Appended to previous track

Used output format : User Defined Encoder
Selected bitrate : 896 kBit/s
Quality : High
Add ID3 tag : No
Command line compressor : C:\Program Files (x86)\Exact Audio Copy\FLAC\FLAC.EXE
Additional command line options : -6 -V -T "ARTIST=%artist%" -T "TITLE=%title%" -T "ALBUM=%albumtitle%" -T "DATE=%year%" -T "TRACKNUMBER=%tracknr%" -T "GENRE=%genre%" -T "COMMENT=%comment%" -T "BAND=%albuminterpret%" -T "ALBUMARTIST=%albuminterpret%" -T "COMPOSER=%composer%" %haslyrics%--tag-from-file=LYRICS="%lyricsfile%"%haslyrics% -T "DISCNUMBER=%cdnumber%" -T "TOTALDISCS=%totalcds%" -T "TOTALTRACKS=%numtracks%" %hascover%--picture="%coverfile%"%hascover% %source% -o %dest%

TOC of the extracted CD

Track | Start | Length | Start sector | End sector
---------------------------------------------------------
1 | 0:00.00 | 3:34.72 | 0 | 16121
2 | 3:34.72 | 4:27.13 | 16122 | 36159
3 | 8:02.10 | 2:01.50 | 36160 | 45284
4 | 10:03.60 | 4:05.57 | 45285 | 63716
5 | 14:09.42 | 5:23.03 | 63717 | 87944
6 | 19:32.45 | 5:57.45 | 87945 | 114764
7 | 25:30.15 | 3:13.60 | 114765 | 129299

Track 1

Filename D:\Cinema\Ellison – Ellison(1971)\01 Unchanged World.wav

Pre-gap length 0:00:02.00

Peak level 98.0 %
Extraction speed 1.1 X
Track quality 100.0 %
Test CRC 4B03D011
Copy CRC 4B03D011
Cannot be verified as accurate (confidence 1) [628EDF7F], AccurateRip returned [859302DB] (AR v2)
Copy OK

Track 2

Filename D:\Cinema\Ellison – Ellison(1971)\02 Seal a Beam Bow.wav

Peak level 98.0 %
Extraction speed 1.3 X
Track quality 100.0 %
Test CRC 0F405049
Copy CRC 0F405049
Cannot be verified as accurate (confidence 1) [E85AE311], AccurateRip returned [A6F13340] (AR v2)
Copy OK

Track 3

Filename D:\Cinema\Ellison – Ellison(1971)\03 Satanic.wav

Peak level 98.0 %
Extraction speed 1.2 X
Track quality 100.0 %
Test CRC 0573E18A
Copy CRC 0573E18A
Cannot be verified as accurate (confidence 1) [086EAF2A], AccurateRip returned [B31E6064] (AR v2)
Copy OK

Track 4

Filename D:\Cinema\Ellison – Ellison(1971)\04 Winter Slutch.wav

Peak level 93.3 %
Extraction speed 1.4 X
Track quality 100.0 %
Test CRC F13A1B0A
Copy CRC F13A1B0A
Cannot be verified as accurate (confidence 1) [F75FC714], AccurateRip returned [250E0F37] (AR v2)
Copy OK

Track 5

Filename D:\Cinema\Ellison – Ellison(1971)\05 Strawberry Pain.wav

Peak level 98.0 %
Extraction speed 1.5 X
Track quality 99.9 %
Test CRC EFD50308
Copy CRC EFD50308
Cannot be verified as accurate (confidence 1) [CE6050D0], AccurateRip returned [CF7CC8BB] (AR v2)
Copy OK

Track 6

Filename D:\Cinema\Ellison – Ellison(1971)\06 Untruth Story.wav

Peak level 98.0 %
Extraction speed 1.7 X
Track quality 100.0 %
Test CRC A4D5B724
Copy CRC A4D5B724
Cannot be verified as accurate (confidence 1) [E0C851AE], AccurateRip returned [702C5F3B] (AR v2)
Copy OK

Track 7

Filename D:\Cinema\Ellison – Ellison(1971)\07 Freedom.wav

Peak level 98.0 %
Extraction speed 1.7 X
Track quality 100.0 %
Test CRC 9650CE0B
Copy CRC 9650CE0B
Cannot be verified as accurate (confidence 1) [9134F4C7], AccurateRip returned [7E1F3CCB] (AR v2)
Copy OK

No tracks could be verified as accurate
You may have a different pressing from the one(s) in the database

No errors occurred

End of status report

---- CUETools DB Plugin V2.1.6

[CTDB TOCID: mxAPO3wGIi9EUXoPz9dL3CPMSNw-] found
Submit result: mxAPO3wGIi9EUXoPz9dL3CPMSNw- has been confirmed
Track | CTDB Status
1 | (5/5) Accurately ripped
2 | (5/5) Accurately ripped
3 | (5/5) Accurately ripped
4 | (5/5) Accurately ripped
5 | (5/5) Accurately ripped
6 | (5/5) Accurately ripped
7 | (5/5) Accurately ripped

==== Log checksum 8C86A6AAE466FFEFB5B437717C3E81728A86B87A36280CD8262A1DC8AE2199AF ====
REM GENRE "Hard Rock" 
REM DATE 1995
REM DISCID 4C06BC07
REM COMMENT "ExactAudioCopy v1.5"
PERFORMER "Ellison"
TITLE "Ellison"
REM COMPOSER ""
FILE "01 Unchanged World.wav" WAVE
TRACK 01 AUDIO
TITLE "Unchanged World"
PERFORMER "Ellison"
REM COMPOSER ""
INDEX 01 00:00:00
FILE "02 Seal a Beam Bow.wav" WAVE
TRACK 02 AUDIO
TITLE "Seal a Beam Bow"
PERFORMER "Ellison"
REM COMPOSER ""
INDEX 01 00:00:00
FILE "03 Satanic.wav" WAVE
TRACK 03 AUDIO
TITLE "Satanic"
PERFORMER "Ellison"
REM COMPOSER ""
INDEX 01 00:00:00
FILE "04 Winter Slutch.wav" WAVE
TRACK 04 AUDIO
TITLE "Winter Slutch"
PERFORMER "Ellison"
REM COMPOSER ""
INDEX 01 00:00:00
FILE "05 Strawberry Pain.wav" WAVE
TRACK 05 AUDIO
TITLE "Strawberry Pain"
PERFORMER "Ellison"
REM COMPOSER ""
INDEX 01 00:00:00
FILE "06 Untruth Story.wav" WAVE
TRACK 06 AUDIO
TITLE "Untruth Story"
PERFORMER "Ellison"
REM COMPOSER ""
INDEX 01 00:00:00
FILE "07 Freedom.wav" WAVE
TRACK 07 AUDIO
TITLE "Freedom"
PERFORMER "Ellison"
REM COMPOSER ""
INDEX 01 00:00:00

Этот торрент недоступен для скачивания без регистрации, однако доступен по публичной magnet-ссылке (источники с публичных трекеров). Перед использованием ссылки прочтите, пожалуйста Пользовательское соглашение, а также как можно дольше оставайтесь на раздаче! Для того, чтобы скачать сам торрент-файл (который видит больше источников), а также для того, чтобы поблагодарить релизера, вам необходимо зарегистрироваться. Если регистрироваться лень - вы можете также попробовать скачать релиз по нашим партнерским ссылкам ниже. Кроме того, зарегистрированным пользователям не показывается всплывающая реклама при скачивании.

[underver.se].t233656.torrent
Трекер: Зарегистрирован   [ 26.01.2022 09:38 ]  
Статус: проверено (by Robbertta at 26.01.2022 14:10)
Поблагодарили: пока никто не поблагодарил...
Тип торрента: публичный - доступные источники с открытых трекеров: 
Размер: 175 MB (занимает 0.04 DVDR, для записи нужно 1 болванка DVDR/RW)
 
 

Яндекс.Метрика powered by Sphinx


В Н И М А Н И Е
Сайт не распространяет и не хранит электронные версии произведений, а лишь бесплатно и без коммерческой выгоды (не требуя взамен платы,
SMS и т.д.) предоставляет доступ к создаваемому пользователями каталогу ссылок на торрент-файлы, которые содержат только списки хеш-сумм.
Убедительная просьба с жалобами обращаться напрямую к пользователю, разместившему торрент файл.

Вверх