Loading...
Error

(Rock) Eagle – Come Under Nancy's Tent (2019) [FLAC (Tracks+.cue), lossless]

Статистика раздачи
Размер:  210 MB   |    Зарегистрирован:  8 месяцев   |    Скачан:  1 раз

Полного источника не было: 5 месяцев 2 дня

Сидов:  0  |  0 KB/s  ]   Личеров:  0  |  0 KB/s  ]

* - сиды/пиры с внешних источников

   
 
Автор Сообщение

Rsa2 Пол:Муж

27-Янв-2022 06:56

Eagle – Come Under Nancy's Tent

Жанр: Rock
Год выпуска: 2019
Носитель: CD
Производитель: Russia Janus Records – JLS 3011
Аудиокодек: FLAC
Тип рипа: Tracks+.cue
Битрейт: lossless
Продолжительность: 00:31:33

Треклист:

01 Pack Up 3:51
02 Come In, It's All For Free 2:58
03 Brown Hair 3:26
04 Dance On Little Beauty 2:16
05 City Girl 2:55
06 Kickin' It Back To You 2:31
07 Separated 3:26
08 We Got A Good Thing Goin' / Get A Hit And Run 3:51
09 Snake In The Grass 3:09
10 Comin' Home Day 3:06
Exact Audio Copy V1.5 from 20. February 2020 

EAC extraction logfile from 27. January 2022, 11:48

Eagle / Come under Nancy's tent

Used drive : HL-DT-STBD-RE BH16NS60 Adapter: 1 ID: 0

Read mode : Secure
Utilize accurate stream : Yes
Defeat audio cache : Yes
Make use of C2 pointers : No

Read offset correction : 6
Overread into Lead-In and Lead-Out : No
Fill up missing offset samples with silence : Yes
Delete leading and trailing silent blocks : No
Null samples used in CRC calculations : Yes
Used interface : Native Win32 interface for Win NT & 2000
Gap handling : Appended to previous track

Used output format : User Defined Encoder
Selected bitrate : 896 kBit/s
Quality : High
Add ID3 tag : No
Command line compressor : C:\Program Files (x86)\Exact Audio Copy\FLAC\FLAC.EXE
Additional command line options : -6 -V -T "ARTIST=%artist%" -T "TITLE=%title%" -T "ALBUM=%albumtitle%" -T "DATE=%year%" -T "TRACKNUMBER=%tracknr%" -T "GENRE=%genre%" -T "COMMENT=%comment%" -T "BAND=%albuminterpret%" -T "ALBUMARTIST=%albuminterpret%" -T "COMPOSER=%composer%" %haslyrics%--tag-from-file=LYRICS="%lyricsfile%"%haslyrics% -T "DISCNUMBER=%cdnumber%" -T "TOTALDISCS=%totalcds%" -T "TOTALTRACKS=%numtracks%" %hascover%--picture="%coverfile%"%hascover% %source% -o %dest%

TOC of the extracted CD

Track | Start | Length | Start sector | End sector
---------------------------------------------------------
1 | 0:00.00 | 3:54.25 | 0 | 17574
2 | 3:54.25 | 2:57.66 | 17575 | 30915
3 | 6:52.16 | 3:27.34 | 30916 | 46474
4 | 10:19.50 | 2:14.17 | 46475 | 56541
5 | 12:33.67 | 2:58.04 | 56542 | 69895
6 | 15:31.71 | 2:34.63 | 69896 | 81508
7 | 18:06.59 | 3:30.56 | 81509 | 97314
8 | 21:37.40 | 3:34.62 | 97315 | 113426
9 | 25:12.27 | 3:11.41 | 113427 | 127792
10 | 28:23.68 | 3:09.09 | 127793 | 141976

Track 1

Filename D:\Cinema\Eagle – Come Under Nancy's Tent\01 Pack It up.wav

Pre-gap length 0:00:02.00

Suspicious position 0:01:12
Suspicious position 0:02:36
Suspicious position 0:03:04
Suspicious position 0:03:06
Suspicious position 0:03:33
Suspicious position 0:03:43

Peak level 100.0 %
Extraction speed 0.2 X
Track quality 97.8 %
Test CRC 2449340A
Copy CRC 976D9034
Track not present in AccurateRip database
Copy finished

Track 2

Filename D:\Cinema\Eagle – Come Under Nancy's Tent\02 Come in, It's all for free.wav

Suspicious position 0:00:42
Suspicious position 0:00:50
Suspicious position 0:01:28
Suspicious position 0:01:45

Peak level 99.6 %
Extraction speed 0.3 X
Track quality 98.0 %
Test CRC EC73B34E
Copy CRC 7E6E25D0
Track not present in AccurateRip database
Copy finished

Track 3

Filename D:\Cinema\Eagle – Come Under Nancy's Tent\03 Brown hair.wav

Peak level 99.8 %
Extraction speed 0.5 X
Track quality 98.7 %
Test CRC 22207447
Copy CRC 890F2A7E
Track not present in AccurateRip database
Copy OK

Track 4

Filename D:\Cinema\Eagle – Come Under Nancy's Tent\04 Dance on little beauty.wav

Peak level 99.9 %
Extraction speed 0.5 X
Track quality 98.7 %
Test CRC 3EEDE706
Copy CRC 633B37BF
Track not present in AccurateRip database
Copy OK

Track 5

Filename D:\Cinema\Eagle – Come Under Nancy's Tent\05 City girl.wav

Peak level 99.8 %
Extraction speed 0.7 X
Track quality 98.9 %
Test CRC 3DF075A5
Copy CRC BB16E366
Track not present in AccurateRip database
Copy OK

Track 6

Filename D:\Cinema\Eagle – Come Under Nancy's Tent\06 Kickin' It back to You.wav

Peak level 100.0 %
Extraction speed 0.4 X
Track quality 98.5 %
Test CRC 6865C386
Copy CRC 8C8CA372
Track not present in AccurateRip database
Copy OK

Track 7

Filename D:\Cinema\Eagle – Come Under Nancy's Tent\07 Separated.wav

Suspicious position 0:02:12

Peak level 99.8 %
Extraction speed 0.5 X
Track quality 98.5 %
Test CRC 82B47BF5
Copy CRC 784CD12E
Track not present in AccurateRip database
Copy finished

Track 8

Filename D:\Cinema\Eagle – Come Under Nancy's Tent\08 We got a good thing goin'.wav

Suspicious position 0:03:31

Peak level 100.0 %
Extraction speed 0.5 X
Track quality 98.3 %
Test CRC 0E16A5CE
Copy CRC 33903F33
Track not present in AccurateRip database
Copy finished

Track 9

Filename D:\Cinema\Eagle – Come Under Nancy's Tent\09 Snake in the grass.wav

Suspicious position 0:02:24
Suspicious position 0:02:32
Suspicious position 0:02:44

Peak level 99.5 %
Extraction speed 0.3 X
Track quality 98.0 %
Test CRC F31EB6F3
Copy CRC 30F303CA
Track not present in AccurateRip database
Copy finished

Track 10

Filename D:\Cinema\Eagle – Come Under Nancy's Tent\10 Comin' home day.wav

Suspicious position 0:00:03
Suspicious position 0:01:03
Suspicious position 0:03:06

Peak level 99.6 %
Extraction speed 0.1 X
Track quality 97.7 %
Test CRC D658C1A8
Copy CRC 95623681
Track not present in AccurateRip database
Copy finished

None of the tracks are present in the AccurateRip database

There were errors

End of status report

---- CUETools DB Plugin V2.1.6

[CTDB TOCID: iiwwgvIBWB6G.oS2E3_h0fnJLCc-] disk not present in database
Submit result: insufficient quality

==== Log checksum 38351A693989BE48C84EC2F961CD82C7739F98E42F6A0ED457485ABCC933AF8C ====
REM GENRE Rock 
REM DATE 2019
REM DISCID 7D07650A
REM COMMENT "ExactAudioCopy v1.5"
PERFORMER "Eagle"
TITLE "Come under Nancy's tent"
REM COMPOSER ""
FILE "01 Pack It up.wav" WAVE
TRACK 01 AUDIO
TITLE "Pack It up"
PERFORMER "Eagle"
REM COMPOSER ""
FLAGS DCP
INDEX 01 00:00:00
FILE "02 Come in, It's all for free.wav" WAVE
TRACK 02 AUDIO
TITLE "Come in, It's all for free"
PERFORMER "Eagle"
REM COMPOSER ""
FLAGS DCP
INDEX 01 00:00:00
FILE "03 Brown hair.wav" WAVE
TRACK 03 AUDIO
TITLE "Brown hair"
PERFORMER "Eagle"
REM COMPOSER ""
FLAGS DCP
INDEX 01 00:00:00
FILE "04 Dance on little beauty.wav" WAVE
TRACK 04 AUDIO
TITLE "Dance on little beauty"
PERFORMER "Eagle"
REM COMPOSER ""
FLAGS DCP
INDEX 01 00:00:00
FILE "05 City girl.wav" WAVE
TRACK 05 AUDIO
TITLE "City girl"
PERFORMER "Eagle"
REM COMPOSER ""
FLAGS DCP
INDEX 01 00:00:00
FILE "06 Kickin' It back to You.wav" WAVE
TRACK 06 AUDIO
TITLE "Kickin' It back to You"
PERFORMER "Eagle"
REM COMPOSER ""
FLAGS DCP
INDEX 01 00:00:00
FILE "07 Separated.wav" WAVE
TRACK 07 AUDIO
TITLE "Separated"
PERFORMER "Eagle"
REM COMPOSER ""
FLAGS DCP
INDEX 01 00:00:00
FILE "08 We got a good thing goin'.wav" WAVE
TRACK 08 AUDIO
TITLE "We got a good thing goin'"
PERFORMER "Eagle"
REM COMPOSER ""
FLAGS DCP
INDEX 01 00:00:00
FILE "09 Snake in the grass.wav" WAVE
TRACK 09 AUDIO
TITLE "Snake in the grass"
PERFORMER "Eagle"
REM COMPOSER ""
FLAGS DCP
INDEX 01 00:00:00
FILE "10 Comin' home day.wav" WAVE
TRACK 10 AUDIO
TITLE "Comin' home day"
PERFORMER "Eagle"
REM COMPOSER ""
FLAGS DCP
INDEX 01 00:00:00

Этот торрент недоступен для скачивания без регистрации, однако доступен по публичной magnet-ссылке (источники с публичных трекеров). Перед использованием ссылки прочтите, пожалуйста Пользовательское соглашение, а также как можно дольше оставайтесь на раздаче! Для того, чтобы скачать сам торрент-файл (который видит больше источников), а также для того, чтобы поблагодарить релизера, вам необходимо зарегистрироваться. Если регистрироваться лень - вы можете также попробовать скачать релиз по нашим партнерским ссылкам ниже. Кроме того, зарегистрированным пользователям не показывается всплывающая реклама при скачивании.

[underver.se].t233815.torrent
Трекер: Зарегистрирован   [ 27.01.2022 06:56 ]  
Статус: проверено (by Robbertta at 27.01.2022 07:14)
Поблагодарили: пока никто не поблагодарил...
Тип торрента: публичный - доступные источники с открытых трекеров: 
Размер: 210 MB (занимает 0.05 DVDR, для записи нужно 1 болванка DVDR/RW)
 
 

Яндекс.Метрика powered by Sphinx


В Н И М А Н И Е
Сайт не распространяет и не хранит электронные версии произведений, а лишь бесплатно и без коммерческой выгоды (не требуя взамен платы,
SMS и т.д.) предоставляет доступ к создаваемому пользователями каталогу ссылок на торрент-файлы, которые содержат только списки хеш-сумм.
Убедительная просьба с жалобами обращаться напрямую к пользователю, разместившему торрент файл.

Вверх