Loading...
Error

(Blues Rock) Captain Beefheart And The Magic Band – Bluejeans & Moonbeams (2006) [FLAC (Tracks+.cue), lossless]

Статистика раздачи
Размер:  220 MB   |    Зарегистрирован:  8 месяцев   |    Скачан:  2 раза

Полного источника не было: 1 месяц 8 дней

Сидов:  0  |  0 KB/s  ]   Личеров:  1  |  0 KB/s  ]

* - сиды/пиры с внешних источников

   
 
Автор Сообщение

Rsa2 Пол:Муж

27-Янв-2022 09:49

Captain Beefheart And The Magic Band – Bluejeans & Moonbeams

Жанр: Blues Rock
Год выпуска: 2006
Носитель: CD
Производитель: Europe Virgin – CDVR2023, EMI – 0946 365515 24
Аудиокодек: FLAC
Тип рипа: Tracks+.cue
Битрейт: lossless
Продолжительность: 00:37:00

Треклист:

01 Party Of Special Things To Do 2:48
02 Same Old Blues 4:00
03 Observatory Crest 3:32
04 Pompadour Swamp 3:32
05 Captain's Holiday 5:43
06 Rock 'N Roll's Evil Doll 3:20
07 Further Than We've Gone 5:31
08 Twist Ah Luck 3:22
09 Bluejeans And Moonbeams 5:02
xact Audio Copy V1.5 from 20. February 2020 

EAC extraction logfile from 27. January 2022, 14:23

Captain Beefheart & His Magic Band / Bluejeans & Moonbeams

Used drive : HL-DT-STBD-RE BH16NS60 Adapter: 1 ID: 0

Read mode : Secure
Utilize accurate stream : Yes
Defeat audio cache : Yes
Make use of C2 pointers : No

Read offset correction : 6
Overread into Lead-In and Lead-Out : No
Fill up missing offset samples with silence : Yes
Delete leading and trailing silent blocks : No
Null samples used in CRC calculations : Yes
Used interface : Native Win32 interface for Win NT & 2000
Gap handling : Appended to previous track

Used output format : User Defined Encoder
Selected bitrate : 896 kBit/s
Quality : High
Add ID3 tag : No
Command line compressor : C:\Program Files (x86)\Exact Audio Copy\FLAC\FLAC.EXE
Additional command line options : -6 -V -T "ARTIST=%artist%" -T "TITLE=%title%" -T "ALBUM=%albumtitle%" -T "DATE=%year%" -T "TRACKNUMBER=%tracknr%" -T "GENRE=%genre%" -T "COMMENT=%comment%" -T "BAND=%albuminterpret%" -T "ALBUMARTIST=%albuminterpret%" -T "COMPOSER=%composer%" %haslyrics%--tag-from-file=LYRICS="%lyricsfile%"%haslyrics% -T "DISCNUMBER=%cdnumber%" -T "TOTALDISCS=%totalcds%" -T "TOTALTRACKS=%numtracks%" %hascover%--picture="%coverfile%"%hascover% %source% -o %dest%

TOC of the extracted CD

Track | Start | Length | Start sector | End sector
---------------------------------------------------------
1 | 0:00.00 | 2:49.02 | 0 | 12676
2 | 2:49.02 | 4:00.25 | 12677 | 30701
3 | 6:49.27 | 3:31.38 | 30702 | 46564
4 | 10:20.65 | 3:31.21 | 46565 | 62410
5 | 13:52.11 | 5:47.47 | 62411 | 88482
6 | 19:39.58 | 3:20.53 | 88483 | 103535
7 | 23:00.36 | 5:32.23 | 103536 | 128458
8 | 28:32.59 | 3:22.66 | 128459 | 143674
9 | 31:55.50 | 5:04.41 | 143675 | 166515

Track 1

Filename D:\Cinema\Captain Beefheart And The Magic Band – Bluejeans & Moonbeams\01 Party of Special Things to Do.wav

Pre-gap length 0:00:02.00

Peak level 98.0 %
Extraction speed 4.6 X
Track quality 100.0 %
Test CRC 841F9256
Copy CRC 841F9256
Accurately ripped (confidence 4) [527EF171] (AR v2)
Copy OK

Track 2

Filename D:\Cinema\Captain Beefheart And The Magic Band – Bluejeans & Moonbeams\02 Same Old Blues.wav

Pre-gap length 0:00:02.33

Peak level 98.0 %
Extraction speed 4.4 X
Track quality 99.9 %
Test CRC AD46582A
Copy CRC AD46582A
Accurately ripped (confidence 4) [2065F3CE] (AR v2)
Copy OK

Track 3

Filename D:\Cinema\Captain Beefheart And The Magic Band – Bluejeans & Moonbeams\03 Observatory Crest.wav

Pre-gap length 0:00:02.61

Peak level 98.0 %
Extraction speed 4.6 X
Track quality 99.9 %
Test CRC 3ACF4655
Copy CRC 3ACF4655
Accurately ripped (confidence 4) [C9D657ED] (AR v2)
Copy OK

Track 4

Filename D:\Cinema\Captain Beefheart And The Magic Band – Bluejeans & Moonbeams\04 Pompadour Swamp.wav

Pre-gap length 0:00:01.62

Peak level 98.3 %
Extraction speed 5.9 X
Track quality 100.0 %
Test CRC 83322C9D
Copy CRC 83322C9D
Accurately ripped (confidence 4) [EF072D26] (AR v2)
Copy OK

Track 5

Filename D:\Cinema\Captain Beefheart And The Magic Band – Bluejeans & Moonbeams\05 Captain's Holiday.wav

Pre-gap length 0:00:01.01

Peak level 99.0 %
Extraction speed 6.6 X
Track quality 100.0 %
Test CRC 7C888C3C
Copy CRC 7C888C3C
Accurately ripped (confidence 4) [42553826] (AR v2)
Copy OK

Track 6

Filename D:\Cinema\Captain Beefheart And The Magic Band – Bluejeans & Moonbeams\06 Rock 'n Roll's Evil Doll.wav

Pre-gap length 0:00:01.68

Peak level 98.0 %
Extraction speed 6.6 X
Track quality 100.0 %
Test CRC 9A7B710B
Copy CRC 9A7B710B
Accurately ripped (confidence 4) [2E1F2AD3] (AR v2)
Copy OK

Track 7

Filename D:\Cinema\Captain Beefheart And The Magic Band – Bluejeans & Moonbeams\07 Further Than We've Gone.wav

Pre-gap length 0:00:02.52

Peak level 98.0 %
Extraction speed 6.4 X
Track quality 99.9 %
Test CRC E82512C0
Copy CRC E82512C0
Accurately ripped (confidence 4) [3B4F99E4] (AR v2)
Copy OK

Track 8

Filename D:\Cinema\Captain Beefheart And The Magic Band – Bluejeans & Moonbeams\08 Twist Ah Luck.wav

Pre-gap length 0:00:01.30

Peak level 98.1 %
Extraction speed 7.2 X
Track quality 100.0 %
Test CRC 9078F267
Copy CRC 9078F267
Accurately ripped (confidence 4) [9C25F0C8] (AR v2)
Copy OK

Track 9

Filename D:\Cinema\Captain Beefheart And The Magic Band – Bluejeans & Moonbeams\09 Bluejeans and Moonbeams.wav

Pre-gap length 0:00:05.88

Peak level 98.0 %
Extraction speed 7.9 X
Track quality 100.0 %
Test CRC 4AB23EA4
Copy CRC 4AB23EA4
Accurately ripped (confidence 4) [C60314BF] (AR v2)
Copy OK

All tracks accurately ripped

No errors occurred

End of status report

---- CUETools DB Plugin V2.1.6

[CTDB TOCID: g8OCJ7debmeMn8CEOLQq7CM1_oA-] found
Submit result: g8OCJ7debmeMn8CEOLQq7CM1_oA- has been confirmed
Track | CTDB Status
1 | (68/69) Accurately ripped
2 | (68/69) Accurately ripped
3 | (68/69) Accurately ripped
4 | (69/69) Accurately ripped
5 | (68/69) Accurately ripped
6 | (68/69) Accurately ripped
7 | (69/69) Accurately ripped
8 | (69/69) Accurately ripped
9 | (68/69) Accurately ripped

==== Log checksum 7ED5D44803A09190F5133E966920F3555D379BF1871C0ABED56DD49445A18AEC ====
REM GENRE "Blues Rock" 
REM DATE 2006
REM DISCID 6208AC09
REM COMMENT "ExactAudioCopy v1.5"
PERFORMER "Captain Beefheart & His Magic Band"
TITLE "Bluejeans & Moonbeams"
REM COMPOSER ""
FILE "01 Party of Special Things to Do.wav" WAVE
TRACK 01 AUDIO
TITLE "Party of Special Things to Do"
PERFORMER "Captain Beefheart & His Magic Band"
REM COMPOSER ""
INDEX 01 00:00:00
TRACK 02 AUDIO
TITLE "Same Old Blues"
PERFORMER "Captain Beefheart & His Magic Band"
REM COMPOSER ""
INDEX 00 02:46:52
FILE "02 Same Old Blues.wav" WAVE
INDEX 01 00:00:00
TRACK 03 AUDIO
TITLE "Observatory Crest"
PERFORMER "Captain Beefheart & His Magic Band"
REM COMPOSER ""
INDEX 00 03:57:54
FILE "03 Observatory Crest.wav" WAVE
INDEX 01 00:00:00
TRACK 04 AUDIO
TITLE "Pompadour Swamp"
PERFORMER "Captain Beefheart & His Magic Band"
REM COMPOSER ""
INDEX 00 03:29:66
FILE "04 Pompadour Swamp.wav" WAVE
INDEX 01 00:00:00
TRACK 05 AUDIO
TITLE "Captain's Holiday"
PERFORMER "Captain Beefheart & His Magic Band"
REM COMPOSER ""
INDEX 00 03:30:20
FILE "05 Captain's Holiday.wav" WAVE
INDEX 01 00:00:00
TRACK 06 AUDIO
TITLE "Rock 'n Roll's Evil Doll"
PERFORMER "Captain Beefheart & His Magic Band"
REM COMPOSER ""
INDEX 00 05:45:71
FILE "06 Rock 'n Roll's Evil Doll.wav" WAVE
INDEX 01 00:00:00
TRACK 07 AUDIO
TITLE "Further Than We've Gone"
PERFORMER "Captain Beefheart & His Magic Band"
REM COMPOSER ""
INDEX 00 03:18:14
FILE "07 Further Than We've Gone.wav" WAVE
INDEX 01 00:00:00
TRACK 08 AUDIO
TITLE "Twist Ah Luck"
PERFORMER "Captain Beefheart & His Magic Band"
REM COMPOSER ""
INDEX 00 05:31:00
FILE "08 Twist Ah Luck.wav" WAVE
INDEX 01 00:00:00
TRACK 09 AUDIO
TITLE "Bluejeans and Moonbeams"
PERFORMER "Captain Beefheart & His Magic Band"
REM COMPOSER ""
INDEX 00 03:17:00
FILE "09 Bluejeans and Moonbeams.wav" WAVE
INDEX 01 00:00:00

Этот торрент недоступен для скачивания без регистрации, однако доступен по публичной magnet-ссылке (источники с публичных трекеров). Перед использованием ссылки прочтите, пожалуйста Пользовательское соглашение, а также как можно дольше оставайтесь на раздаче! Для того, чтобы скачать сам торрент-файл (который видит больше источников), а также для того, чтобы поблагодарить релизера, вам необходимо зарегистрироваться. Если регистрироваться лень - вы можете также попробовать скачать релиз по нашим партнерским ссылкам ниже. Кроме того, зарегистрированным пользователям не показывается всплывающая реклама при скачивании.

[underver.se].t233821.torrent
Трекер: Зарегистрирован   [ 27.01.2022 09:49 ]  
Статус: проверено (by Robbertta at 27.01.2022 10:24)
Поблагодарили: пока никто не поблагодарил...
Тип торрента: публичный - доступные источники с открытых трекеров: 
Размер: 220 MB (занимает 0.05 DVDR, для записи нужно 1 болванка DVDR/RW)
 
 

Яндекс.Метрика powered by Sphinx


В Н И М А Н И Е
Сайт не распространяет и не хранит электронные версии произведений, а лишь бесплатно и без коммерческой выгоды (не требуя взамен платы,
SMS и т.д.) предоставляет доступ к создаваемому пользователями каталогу ссылок на торрент-файлы, которые содержат только списки хеш-сумм.
Убедительная просьба с жалобами обращаться напрямую к пользователю, разместившему торрент файл.

Вверх