Loading...
Error

(Avangarde) Captain Beefheart And The Magic Band – Unconditionally Guaranteed (2006) [FLAC (Tracks+.cue), lossless]

Статистика раздачи
Размер:  191 MB   |    Зарегистрирован:  8 месяцев   |    Скачан:  2 раза
Сидов:  1  |  0 KB/s  ]   Личеров:  0  |  0 KB/s  ]

* - сиды/пиры с внешних источников

   
 
Автор Сообщение

Rsa2 Пол:Муж

27-Янв-2022 10:29

Captain Beefheart And The Magic Band – Unconditionally Guaranteed

Жанр: Avangarde
Год выпуска: 2006
Носитель: CD
Производитель: Europe Virgin – CDVR2015, EMI – 0946 365511 28
Аудиокодек: FLAC
Тип рипа: Tracks+.cue
Битрейт: lossless
Продолжительность: 00:31:09

Треклист:

01 Upon The My-O-My 2:40
02 Sugar Bowl 2:11
03 New Electric Ride 3:00
04 Magic Be 2:55
05 Happy Love Song 3:54
06 Full Moon, Hot Sun 2:19
07 I Got Love On My Mind 3:07
08 This Is The Day 4:48
09 Lazy Music 2:49
10 Peaches 3:20
Exact Audio Copy V1.5 from 20. February 2020 

EAC extraction logfile from 27. January 2022, 15:26

Captain Beefheart / Unconditionally Guaranteed

Used drive : HL-DT-STBD-RE BH16NS60 Adapter: 1 ID: 0

Read mode : Secure
Utilize accurate stream : Yes
Defeat audio cache : Yes
Make use of C2 pointers : No

Read offset correction : 6
Overread into Lead-In and Lead-Out : No
Fill up missing offset samples with silence : Yes
Delete leading and trailing silent blocks : No
Null samples used in CRC calculations : Yes
Used interface : Native Win32 interface for Win NT & 2000
Gap handling : Appended to previous track

Used output format : User Defined Encoder
Selected bitrate : 896 kBit/s
Quality : High
Add ID3 tag : No
Command line compressor : C:\Program Files (x86)\Exact Audio Copy\FLAC\FLAC.EXE
Additional command line options : -6 -V -T "ARTIST=%artist%" -T "TITLE=%title%" -T "ALBUM=%albumtitle%" -T "DATE=%year%" -T "TRACKNUMBER=%tracknr%" -T "GENRE=%genre%" -T "COMMENT=%comment%" -T "BAND=%albuminterpret%" -T "ALBUMARTIST=%albuminterpret%" -T "COMPOSER=%composer%" %haslyrics%--tag-from-file=LYRICS="%lyricsfile%"%haslyrics% -T "DISCNUMBER=%cdnumber%" -T "TOTALDISCS=%totalcds%" -T "TOTALTRACKS=%numtracks%" %hascover%--picture="%coverfile%"%hascover% %source% -o %dest%

TOC of the extracted CD

Track | Start | Length | Start sector | End sector
---------------------------------------------------------
1 | 0:00.00 | 2:42.67 | 0 | 12216
2 | 2:42.67 | 2:12.11 | 12217 | 22127
3 | 4:55.03 | 3:01.13 | 22128 | 35715
4 | 7:56.16 | 2:54.42 | 35716 | 48807
5 | 10:50.58 | 3:55.10 | 48808 | 66442
6 | 14:45.68 | 2:18.10 | 66443 | 76802
7 | 17:04.03 | 3:06.61 | 76803 | 90813
8 | 20:10.64 | 4:49.16 | 90814 | 112504
9 | 25:00.05 | 2:50.51 | 112505 | 125305
10 | 27:50.56 | 3:18.73 | 125306 | 140228

Track 1

Filename D:\Cinema\Captain Beefheart And The Magic Band – Unconditionally Guaranteed\01 Upon the My-O-My.wav

Pre-gap length 0:00:02.00

Peak level 98.2 %
Extraction speed 4.6 X
Track quality 100.0 %
Test CRC 4CF1148B
Copy CRC 4CF1148B
Cannot be verified as accurate (confidence 12) [D5A522BA], AccurateRip returned [3C5E3895] (AR v2)
Copy OK

Track 2

Filename D:\Cinema\Captain Beefheart And The Magic Band – Unconditionally Guaranteed\02 Sugar Bowl.wav

Pre-gap length 0:00:01.29

Peak level 98.8 %
Extraction speed 3.5 X
Track quality 99.9 %
Test CRC 8C4816DE
Copy CRC 8C4816DE
Cannot be verified as accurate (confidence 12) [F79B8CCC], AccurateRip returned [FC459EA5] (AR v2)
Copy OK

Track 3

Filename D:\Cinema\Captain Beefheart And The Magic Band – Unconditionally Guaranteed\03 New Electric Ride.wav

Pre-gap length 0:00:00.94

Peak level 98.5 %
Extraction speed 5.1 X
Track quality 100.0 %
Test CRC DD658199
Copy CRC DD658199
Cannot be verified as accurate (confidence 12) [7EFB209F], AccurateRip returned [9EC43E98] (AR v2)
Copy OK

Track 4

Filename D:\Cinema\Captain Beefheart And The Magic Band – Unconditionally Guaranteed\04 Magic Be.wav

Pre-gap length 0:00:00.85

Peak level 98.1 %
Extraction speed 5.4 X
Track quality 100.0 %
Test CRC 2656089A
Copy CRC 2656089A
Cannot be verified as accurate (confidence 12) [9BC496CC], AccurateRip returned [5A365F41] (AR v2)
Copy OK

Track 5

Filename D:\Cinema\Captain Beefheart And The Magic Band – Unconditionally Guaranteed\05 Happy Love Song.wav

Pre-gap length 0:00:01.42

Peak level 98.3 %
Extraction speed 6.0 X
Track quality 100.0 %
Test CRC 6150D921
Copy CRC 6150D921
Cannot be verified as accurate (confidence 12) [2F180C92], AccurateRip returned [91F58219] (AR v2)
Copy OK

Track 6

Filename D:\Cinema\Captain Beefheart And The Magic Band – Unconditionally Guaranteed\06 Full Moon, Hot Sun.wav

Pre-gap length 0:00:01.89

Peak level 98.2 %
Extraction speed 4.3 X
Track quality 99.9 %
Test CRC 4D49F215
Copy CRC 4D49F215
Cannot be verified as accurate (confidence 12) [8D93299D], AccurateRip returned [FF194BAA] (AR v2)
Copy OK

Track 7

Filename D:\Cinema\Captain Beefheart And The Magic Band – Unconditionally Guaranteed\07 I Got Love on My Mind.wav

Pre-gap length 0:00:01.09

Peak level 98.1 %
Extraction speed 6.3 X
Track quality 100.0 %
Test CRC 5D69E014
Copy CRC 5D69E014
Cannot be verified as accurate (confidence 12) [D419FF82], AccurateRip returned [47275593] (AR v2)
Copy OK

Track 8

Filename D:\Cinema\Captain Beefheart And The Magic Band – Unconditionally Guaranteed\08 This Is the Day.wav

Pre-gap length 0:00:01.45

Peak level 98.0 %
Extraction speed 7.0 X
Track quality 100.0 %
Test CRC C9AC08F2
Copy CRC C9AC08F2
Cannot be verified as accurate (confidence 13) [5044236C], AccurateRip returned [DDF23E7F] (AR v2)
Copy OK

Track 9

Filename D:\Cinema\Captain Beefheart And The Magic Band – Unconditionally Guaranteed\09 Lazy Music.wav

Pre-gap length 0:00:03.66

Peak level 98.0 %
Extraction speed 6.7 X
Track quality 100.0 %
Test CRC 1B91ACFA
Copy CRC 1B91ACFA
Cannot be verified as accurate (confidence 12) [3A91E1E4], AccurateRip returned [450B3061] (AR v2)
Copy OK

Track 10

Filename D:\Cinema\Captain Beefheart And The Magic Band – Unconditionally Guaranteed\10 Peaches.wav

Pre-gap length 0:00:03.05

Peak level 98.8 %
Extraction speed 7.2 X
Track quality 100.0 %
Test CRC AE408EF1
Copy CRC AE408EF1
Cannot be verified as accurate (confidence 12) [7C8382C3], AccurateRip returned [429258F2] (AR v2)
Copy OK

No tracks could be verified as accurate
You may have a different pressing from the one(s) in the database

No errors occurred

End of status report

---- CUETools DB Plugin V2.1.6

[CTDB TOCID: fC4QT3_pIXEaPfO7cY3Rlp.f9As-] found
Submit result: fC4QT3_pIXEaPfO7cY3Rlp.f9As- has been confirmed
Track | CTDB Status
1 | (54/54) Accurately ripped
2 | (54/54) Accurately ripped
3 | (54/54) Accurately ripped
4 | (54/54) Accurately ripped
5 | (54/54) Accurately ripped
6 | (54/54) Accurately ripped
7 | (54/54) Accurately ripped
8 | (54/54) Accurately ripped
9 | (54/54) Accurately ripped
10 | (54/54) Accurately ripped

==== Log checksum EDAEEB82818E328E139D16227F31A33C6E0A9DA8640561A38331F8E38B6B2CD4 ====
REM GENRE Avantgarde 
REM DATE 2006
REM DISCID 7D074D0A
REM COMMENT "ExactAudioCopy v1.5"
PERFORMER "Captain Beefheart"
TITLE "Unconditionally Guaranteed"
REM COMPOSER ""
FILE "01 Upon the My-O-My.wav" WAVE
TRACK 01 AUDIO
TITLE "Upon the My-O-My"
PERFORMER "Captain Beefheart & the Magic Band"
REM COMPOSER "Andy Dimartino"
INDEX 01 00:00:00
TRACK 02 AUDIO
TITLE "Sugar Bowl"
PERFORMER "Captain Beefheart & the Magic Band"
REM COMPOSER "Andy Dimartino"
INDEX 00 02:41:45
FILE "02 Sugar Bowl.wav" WAVE
INDEX 01 00:00:00
TRACK 03 AUDIO
TITLE "New Electric Ride"
PERFORMER "Captain Beefheart & the Magic Band"
REM COMPOSER "Andy Dimartino"
INDEX 00 02:11:15
FILE "03 New Electric Ride.wav" WAVE
INDEX 01 00:00:00
TRACK 04 AUDIO
TITLE "Magic Be"
PERFORMER "Captain Beefheart & the Magic Band"
REM COMPOSER "Andy Dimartino"
INDEX 00 03:00:24
FILE "04 Magic Be.wav" WAVE
INDEX 01 00:00:00
TRACK 05 AUDIO
TITLE "Happy Love Song"
PERFORMER "Captain Beefheart & the Magic Band"
REM COMPOSER "Andy Dimartino"
INDEX 00 02:53:10
FILE "05 Happy Love Song.wav" WAVE
INDEX 01 00:00:00
TRACK 06 AUDIO
TITLE "Full Moon, Hot Sun"
PERFORMER "Captain Beefheart & the Magic Band"
REM COMPOSER "Andy Dimartino"
INDEX 00 03:53:18
FILE "06 Full Moon, Hot Sun.wav" WAVE
INDEX 01 00:00:00
TRACK 07 AUDIO
TITLE "I Got Love on My Mind"
PERFORMER "Captain Beefheart & the Magic Band"
REM COMPOSER "Andy Dimartino"
INDEX 00 02:17:03
FILE "07 I Got Love on My Mind.wav" WAVE
INDEX 01 00:00:00
TRACK 08 AUDIO
TITLE "This Is the Day"
PERFORMER "Captain Beefheart & the Magic Band"
REM COMPOSER "Andy Dimartino"
INDEX 00 03:05:27
FILE "08 This Is the Day.wav" WAVE
INDEX 01 00:00:00
TRACK 09 AUDIO
TITLE "Lazy Music"
PERFORMER "Captain Beefheart & the Magic Band"
REM COMPOSER "Andy Dimartino"
INDEX 00 04:45:41
FILE "09 Lazy Music.wav" WAVE
INDEX 01 00:00:00
TRACK 10 AUDIO
TITLE "Peaches"
PERFORMER "Captain Beefheart & the Magic Band"
REM COMPOSER "Andy Dimartino"
INDEX 00 02:47:47
FILE "10 Peaches.wav" WAVE
INDEX 01 00:00:00

Этот торрент недоступен для скачивания без регистрации, однако доступен по публичной magnet-ссылке (источники с публичных трекеров). Перед использованием ссылки прочтите, пожалуйста Пользовательское соглашение, а также как можно дольше оставайтесь на раздаче! Для того, чтобы скачать сам торрент-файл (который видит больше источников), а также для того, чтобы поблагодарить релизера, вам необходимо зарегистрироваться. Если регистрироваться лень - вы можете также попробовать скачать релиз по нашим партнерским ссылкам ниже. Кроме того, зарегистрированным пользователям не показывается всплывающая реклама при скачивании.

[underver.se].t233824.torrent
Трекер: Зарегистрирован   [ 27.01.2022 10:29 ]  
Статус: проверено (by Robbertta at 27.01.2022 12:26)
Поблагодарили: пока никто не поблагодарил...
Тип торрента: публичный - доступные источники с открытых трекеров: 
Размер: 191 MB (занимает 0.04 DVDR, для записи нужно 1 болванка DVDR/RW)
 
 

Яндекс.Метрика powered by Sphinx


В Н И М А Н И Е
Сайт не распространяет и не хранит электронные версии произведений, а лишь бесплатно и без коммерческой выгоды (не требуя взамен платы,
SMS и т.д.) предоставляет доступ к создаваемому пользователями каталогу ссылок на торрент-файлы, которые содержат только списки хеш-сумм.
Убедительная просьба с жалобами обращаться напрямую к пользователю, разместившему торрент файл.

Вверх