Loading...
Error

(Fusion) Hungry Wolf – Hungry Wolf (2011) [FLAC (Tracks+.cue), lossless]

Статистика раздачи
Размер:  203 MB   |    Зарегистрирован:  8 месяцев   |    Скачан:  1 раз

Полного источника не было: 1 день

Сидов:  0  |  0 KB/s  ]   Личеров:  0  |  0 KB/s  ]

* - сиды/пиры с внешних источников

   
 
Автор Сообщение

Rsa2 Пол:Муж

27-Янв-2022 11:54

Hungry Wolf – Hungry Wolf

Жанр: Fusion
Год выпуска: 2011
Носитель: CD
Производитель: US Mandala – 293
Аудиокодек: FLAC
Тип рипа: Tracks+.cue
Битрейт: lossless
Продолжительность: 00:36:59

Треклист:

01 Melanie 3:07
02 Watching And Waiting 3:25
03 Custards Last Stand 2:50
04 Country Wild 4:41
05 Waiting For The Morning Sun 3:02
06 Like Now 2:49
07 Hole In My Shoe 5:25
08 Sleepy 5:11
09 The Drifter 3:24
10 Revolution??? 3:00
Exact Audio Copy V1.5 from 20. February 2020 

EAC extraction logfile from 27. January 2022, 16:14

Hungry Wolf / Hungry Wolf

Used drive : HL-DT-STBD-RE BH16NS60 Adapter: 1 ID: 0

Read mode : Secure
Utilize accurate stream : Yes
Defeat audio cache : Yes
Make use of C2 pointers : No

Read offset correction : 6
Overread into Lead-In and Lead-Out : No
Fill up missing offset samples with silence : Yes
Delete leading and trailing silent blocks : No
Null samples used in CRC calculations : Yes
Used interface : Native Win32 interface for Win NT & 2000
Gap handling : Appended to previous track

Used output format : User Defined Encoder
Selected bitrate : 896 kBit/s
Quality : High
Add ID3 tag : No
Command line compressor : C:\Program Files (x86)\Exact Audio Copy\FLAC\FLAC.EXE
Additional command line options : -6 -V -T "ARTIST=%artist%" -T "TITLE=%title%" -T "ALBUM=%albumtitle%" -T "DATE=%year%" -T "TRACKNUMBER=%tracknr%" -T "GENRE=%genre%" -T "COMMENT=%comment%" -T "BAND=%albuminterpret%" -T "ALBUMARTIST=%albuminterpret%" -T "COMPOSER=%composer%" %haslyrics%--tag-from-file=LYRICS="%lyricsfile%"%haslyrics% -T "DISCNUMBER=%cdnumber%" -T "TOTALDISCS=%totalcds%" -T "TOTALTRACKS=%numtracks%" %hascover%--picture="%coverfile%"%hascover% %source% -o %dest%

TOC of the extracted CD

Track | Start | Length | Start sector | End sector
---------------------------------------------------------
1 | 0:00.00 | 3:07.46 | 0 | 14070
2 | 3:07.46 | 3:25.72 | 14071 | 29517
3 | 6:33.43 | 2:50.21 | 29518 | 42288
4 | 9:23.64 | 4:41.59 | 42289 | 63422
5 | 14:05.48 | 3:02.11 | 63423 | 77083
6 | 17:07.59 | 2:49.46 | 77084 | 89804
7 | 19:57.30 | 5:25.52 | 89805 | 114231
8 | 25:23.07 | 5:11.37 | 114232 | 137593
9 | 30:34.44 | 3:24.45 | 137594 | 152938
10 | 33:59.14 | 3:00.49 | 152939 | 166487

Track 1

Filename D:\Cinema\Hungry Wolf – Hungry Wolf\01 Melanie.wav

Pre-gap length 0:00:02.00

Peak level 96.6 %
Extraction speed 2.0 X
Track quality 100.0 %
Test CRC E3FA1422
Copy CRC E3FA1422
Accurately ripped (confidence 1) [B5492DD1] (AR v2)
Copy OK

Track 2

Filename D:\Cinema\Hungry Wolf – Hungry Wolf\02 Watching And Waiting.wav

Peak level 96.6 %
Extraction speed 2.2 X
Track quality 100.0 %
Test CRC 3F60BB46
Copy CRC 3F60BB46
Accurately ripped (confidence 1) [4E75698C] (AR v2)
Copy OK

Track 3

Filename D:\Cinema\Hungry Wolf – Hungry Wolf\03 Custards Last Stand.wav

Peak level 96.6 %
Extraction speed 1.5 X
Track quality 99.9 %
Test CRC 1016DFF1
Copy CRC 1016DFF1
Accurately ripped (confidence 1) [93F51009] (AR v2)
Copy OK

Track 4

Filename D:\Cinema\Hungry Wolf – Hungry Wolf\04 Country Wild.wav

Peak level 96.6 %
Extraction speed 2.6 X
Track quality 100.0 %
Test CRC 2779295B
Copy CRC 2779295B
Accurately ripped (confidence 1) [02303DEA] (AR v2)
Copy OK

Track 5

Filename D:\Cinema\Hungry Wolf – Hungry Wolf\05 Waiting For The Morning Sun.wav

Peak level 96.6 %
Extraction speed 2.6 X
Track quality 100.0 %
Test CRC FFCC6F21
Copy CRC FFCC6F21
Accurately ripped (confidence 1) [317D33FA] (AR v2)
Copy OK

Track 6

Filename D:\Cinema\Hungry Wolf – Hungry Wolf\06 Like Now.wav

Peak level 96.6 %
Extraction speed 1.8 X
Track quality 99.9 %
Test CRC BB3ABA19
Copy CRC BB3ABA19
Accurately ripped (confidence 1) [82625882] (AR v2)
Copy OK

Track 7

Filename D:\Cinema\Hungry Wolf – Hungry Wolf\07 Hole In My Shoe.wav

Peak level 96.6 %
Extraction speed 2.5 X
Track quality 99.9 %
Test CRC A766CDA1
Copy CRC A766CDA1
Accurately ripped (confidence 1) [64451178] (AR v2)
Copy OK

Track 8

Filename D:\Cinema\Hungry Wolf – Hungry Wolf\08 Sleepy.wav

Peak level 92.4 %
Extraction speed 3.4 X
Track quality 100.0 %
Test CRC 853ADD75
Copy CRC 853ADD75
Accurately ripped (confidence 1) [BD3C5046] (AR v2)
Copy OK

Track 9

Filename D:\Cinema\Hungry Wolf – Hungry Wolf\09 The Drifter.wav

Peak level 96.6 %
Extraction speed 3.3 X
Track quality 100.0 %
Test CRC 8EFC5E87
Copy CRC 8EFC5E87
Accurately ripped (confidence 1) [3DD6F65B] (AR v2)
Copy OK

Track 10

Filename D:\Cinema\Hungry Wolf – Hungry Wolf\10 Revolution.wav

Peak level 96.6 %
Extraction speed 3.3 X
Track quality 100.0 %
Test CRC 56EB5711
Copy CRC 56EB5711
Accurately ripped (confidence 1) [18DF21BD] (AR v2)
Copy OK

All tracks accurately ripped

No errors occurred

End of status report

---- CUETools DB Plugin V2.1.6

[CTDB TOCID: OvOIuhBlcHK1SPwY8DMELLiUeKE-] found
Submit result: OvOIuhBlcHK1SPwY8DMELLiUeKE- has been confirmed
Track | CTDB Status
1 | (4/4) Accurately ripped
2 | (4/4) Accurately ripped
3 | (4/4) Accurately ripped
4 | (4/4) Accurately ripped
5 | (4/4) Accurately ripped
6 | (4/4) Accurately ripped
7 | (4/4) Accurately ripped
8 | (4/4) Accurately ripped
9 | (4/4) Accurately ripped
10 | (4/4) Accurately ripped

==== Log checksum D819B85A2C5BC30BD9C8F794B750A90ECE0E1E37894F785D2B77C07BFE2C36E5 ====
REM GENRE Fusion 
REM DATE 2011
REM DISCID 8E08AB0A
REM COMMENT "ExactAudioCopy v1.5"
PERFORMER "Hungry Wolf"
TITLE "Hungry Wolf"
REM COMPOSER ""
FILE "01 Melanie.wav" WAVE
TRACK 01 AUDIO
TITLE "Melanie "
PERFORMER "Hungry Wolf"
REM COMPOSER ""
INDEX 01 00:00:00
FILE "02 Watching And Waiting.wav" WAVE
TRACK 02 AUDIO
TITLE "Watching And Waiting "
PERFORMER "Hungry Wolf"
REM COMPOSER ""
INDEX 01 00:00:00
FILE "03 Custards Last Stand.wav" WAVE
TRACK 03 AUDIO
TITLE "Custards Last Stand"
PERFORMER "Hungry Wolf"
REM COMPOSER ""
INDEX 01 00:00:00
FILE "04 Country Wild.wav" WAVE
TRACK 04 AUDIO
TITLE "Country Wild "
PERFORMER "Hungry Wolf"
REM COMPOSER ""
INDEX 01 00:00:00
FILE "05 Waiting For The Morning Sun.wav" WAVE
TRACK 05 AUDIO
TITLE "Waiting For The Morning Sun "
PERFORMER "Hungry Wolf"
REM COMPOSER ""
INDEX 01 00:00:00
FILE "06 Like Now.wav" WAVE
TRACK 06 AUDIO
TITLE "Like Now "
PERFORMER "Hungry Wolf"
REM COMPOSER ""
INDEX 01 00:00:00
FILE "07 Hole In My Shoe.wav" WAVE
TRACK 07 AUDIO
TITLE "Hole In My Shoe "
PERFORMER "Hungry Wolf"
REM COMPOSER ""
INDEX 01 00:00:00
FILE "08 Sleepy.wav" WAVE
TRACK 08 AUDIO
TITLE "Sleepy "
PERFORMER "Hungry Wolf"
REM COMPOSER ""
INDEX 01 00:00:00
FILE "09 The Drifter.wav" WAVE
TRACK 09 AUDIO
TITLE "The Drifter "
PERFORMER "Hungry Wolf"
REM COMPOSER ""
INDEX 01 00:00:00
FILE "10 Revolution.wav" WAVE
TRACK 10 AUDIO
TITLE "Revolution??? "
PERFORMER "Hungry Wolf"
REM COMPOSER ""
INDEX 01 00:00:00

Этот торрент недоступен для скачивания без регистрации, однако доступен по публичной magnet-ссылке (источники с публичных трекеров). Перед использованием ссылки прочтите, пожалуйста Пользовательское соглашение, а также как можно дольше оставайтесь на раздаче! Для того, чтобы скачать сам торрент-файл (который видит больше источников), а также для того, чтобы поблагодарить релизера, вам необходимо зарегистрироваться. Если регистрироваться лень - вы можете также попробовать скачать релиз по нашим партнерским ссылкам ниже. Кроме того, зарегистрированным пользователям не показывается всплывающая реклама при скачивании.

[underver.se].t233828.torrent
Трекер: Зарегистрирован   [ 27.01.2022 11:54 ]  
Статус: проверено (by Robbertta at 27.01.2022 12:20)
Поблагодарили: пока никто не поблагодарил...
Тип торрента: публичный - доступные источники с открытых трекеров: 
Размер: 203 MB (занимает 0.05 DVDR, для записи нужно 1 болванка DVDR/RW)
 
 

Яндекс.Метрика powered by Sphinx


В Н И М А Н И Е
Сайт не распространяет и не хранит электронные версии произведений, а лишь бесплатно и без коммерческой выгоды (не требуя взамен платы,
SMS и т.д.) предоставляет доступ к создаваемому пользователями каталогу ссылок на торрент-файлы, которые содержат только списки хеш-сумм.
Убедительная просьба с жалобами обращаться напрямую к пользователю, разместившему торрент файл.

Вверх