Loading...
Error

Перевал / Der Pass / Pagan Peak / Сезон: 1-2 / Серии: 1-16 из 16 (Сирил Босс, Филипп Штеннерт) [2018-2022, Германия, Австрия, триллер, драма, криминал, детектив, WEB-DLRip] MVO (HDrezka Studio)

Статистика раздачи
Размер:  9.53 GB   |    Зарегистрирован:  8 месяцев   |    Скачан:  17 раз

Полного источника не было: 6 часов

Сидов:  0  |  0 KB/s  ]   Личеров:  0  |  0 KB/s  ]

* - сиды/пиры с внешних источников

   
 
Автор Сообщение

cheloweck.dojdya Пол:Муж

30-Янв-2022 19:44

Перевал / Der Pass / Pagan Peakr


Год выхода: 2018-2022
Выпущено: Германия, Австрия
Жанр: триллер, драма, криминал, детектив
Продолжительность: ~ 00:50:00
Перевод: Профессиональный (многоголосый закадровый) HDrezka Studio
Субтитры: Русские (форсированные / вшитые)
Режиссеры:
Сирил Босс, Филипп Штеннерт
В ролях:
Юлия Йенч, Николас Офчарек, Франц Хартвиг, Ханно Коффлер, Лукас Мико, Наташа Петрович, Лукас Грегорович, Мартин Файфель, Кристофер Шерф, Джулиан Лооман, Маттиас Хак, Рони Герман, Сара Ребеллато, Тереза Мартини
Описание:
В заснеженных Альпах, на самой границе между Германией и Австрией, полиция находит труп мужчины. При осмотре выясняется: мужчину приволокли сюда уже мертвым, у него поддельные документы, а в руках — хвост из конского волоса. Расследовать загадочное преступление берутся два детектива из соседствующих стран.
Она — жизнелюбивая немка Элли Стокер, которая пытается делать свою жуткую работу легко. Он — мрачный алкоголик Гедеон Винтер, оказавшийся на самом дне жизни. Вдвоем они включаются в расследование, которое все больше напоминает опасную игру, затеянную маньяком-убийцей, — и заодно демонстрируют, как важно при всей разности темпераментов и образов жизни держаться вместе.

IMDB | КиноПоиск

Качество: WEB-DLRip
Формат: AVI
Видео: 720x304 (2.37:1), 25 fps, XviD build 69 ~1500 kbps avg, 0.27 bit/pixel
Аудио: 48 kHz, AC3 Dolby Digital, 2/0 (L,R) ch, ~192 kbps avg

Код:

Общее
Полное имя                               : D:\Pereval_S01_E01_2018_WEB-DLRip_by_Dalemake.avi
Формат                                   : AVI
Формат/Информация                        : Audio Video Interleave
Размер файла                             : 524 Мбайт
Продолжительность                        : 42 м. 58 с.
Общий поток                              : 1 704 Кбит/сек
Программа кодирования                    : VirtualDubMod 1.5.10.3 | www.virtualdub-fr.org || (build 2550/release)
Библиотека кодирования                   : VirtualDubMod build 2550/release

Видео
Идентификатор                            : 0
Формат                                   : MPEG-4 Visual
Профиль формата                          : Advanced [email protected]
Настройки формата                        : BVOP1 / Custom Matrix
Параметр BVOP формата                    : 1
Параметр QPel формата                    : Нет
Параметр GMC формата                     : Без точки перехода
Параметр матрицы формата                 : Выборочная
Идентификатор кодека                     : XVID
Идентификатор кодека/Подсказка           : XviD
Продолжительность                        : 42 м. 58 с.
Битрейт                                  : 1 502 Кбит/сек
Ширина                                   : 720 пикселей
Высота                                   : 304 пикселя
Соотношение сторон                       : 2,35:1
Частота кадров                           : 25,000 кадров/сек
Цветовое пространство                    : YUV
Субдискретизация насыщенности            : 4:2:0
Битовая глубина                          : 8 бит
Тип развёртки                            : Прогрессивная
Метод сжатия                             : С потерями
Бит/(Пиксели*Кадры)                      : 0.274
Размер потока                            : 462 Мбайт (88%)
Библиотека кодирования                   : XviD 69

Аудио
Идентификатор                            : 1
Формат                                   : AC-3
Формат/Информация                        : Audio Coding 3
Коммерческое название                    : Dolby Digital
Идентификатор кодека                     : 2000
Продолжительность                        : 42 м. 58 с.
Вид битрейта                             : Постоянный
Битрейт                                  : 192 Кбит/сек
Каналы                                   : 2 канала
Channel layout                           : L R
Частота                                  : 48,0 КГц
Частота кадров                           : 31,250 кадров/сек (1536 SPF)
Метод сжатия                             : С потерями
Размер потока                            : 59,0 Мбайт (11%)
Выравнивание                             : Разделение по промежуткам
Продолжительность промежутка             : 40  мс. (1,00 видеокадр)
Время предзагрузки промежутка            : 500  мс.
Service kind                             : Complete Main


Этот торрент недоступен для скачивания без регистрации, однако доступен по публичной magnet-ссылке (источники с публичных трекеров). Перед использованием ссылки прочтите, пожалуйста Пользовательское соглашение, а также как можно дольше оставайтесь на раздаче! Для того, чтобы скачать сам торрент-файл (который видит больше источников), а также для того, чтобы поблагодарить релизера, вам необходимо зарегистрироваться. Если регистрироваться лень - вы можете также попробовать скачать релиз по нашим партнерским ссылкам ниже. Кроме того, зарегистрированным пользователям не показывается всплывающая реклама при скачивании.

[underver.se].t234286.torrent
Трекер: Зарегистрирован   [ 30.01.2022 19:44 ]  
Статус: проверено (by Robbertta at 31.01.2022 08:10)
Поблагодарили: пока никто не поблагодарил...
Тип торрента: публичный - доступные источники с открытых трекеров: 
Размер: 9.53 GB (занимает 2.18 DVDR, для записи нужно 3 болванки DVDR/RW)
 
 

Яндекс.Метрика powered by Sphinx


В Н И М А Н И Е
Сайт не распространяет и не хранит электронные версии произведений, а лишь бесплатно и без коммерческой выгоды (не требуя взамен платы,
SMS и т.д.) предоставляет доступ к создаваемому пользователями каталогу ссылок на торрент-файлы, которые содержат только списки хеш-сумм.
Убедительная просьба с жалобами обращаться напрямую к пользователю, разместившему торрент файл.

Вверх