Loading...
Error

Американская готика / American Gothic / Сезон: 1 / Серии: 1-13 из 13 (Мэтт Шекман) [2016, США, триллер, драма, криминал, детектив, WEB-DLRip] MVO (Double Rec) + Eng

Статистика раздачи
Размер:  7.65 GB   |    Зарегистрирован:  8 месяцев   |    Скачан:  9 раз
Сидов:  1  |  0 KB/s  ]   Личеров:  0  |  0 KB/s  ]

* - сиды/пиры с внешних источников

   
 
Автор Сообщение

cheloweck.dojdya Пол:Муж

30-Янв-2022 19:48

Американская готика / American Gothic


Год выпуска: 2016
Страна: США
Жанр: триллер, драма, криминал, детектив
Продолжительность: 00:43:00

Перевод: Профессиональный (многоголосый закадровый) Double Rec по заказу Амедиатека

Режиссёр: Мэтт Шекман

В ролях: Энтони Старр, Гэбриел Бейтман, Джастин Чэтвин, Меган Кетч, Джульет Райлэнс, Шон Контуа, Меган Хефферн, Вирджиния Мэдсен, Эллиот Найт и др.

Описание: Горе настигло одно крупное и богатое семейство Бостона. Эти люди всегда отличались своим ярым нравом, но теперь они молчат, провожая в последний путь главу семейства, который недавно скончался. Траур трауром, но загадочное прошлое почившего заставило людей понервничать. Так, например, близкие узнают, что их родственник оказывается замешан в череде жестоких преступлений, которые до сих пор не дают покоя простым людям в городе. К тому же живые представители семейства узнают, что среди них есть предатель, который знал обо всех планах усопшего и до сих пор планирует продолжать его дело.

Качество: WEB-DLRip
Формат: AVI
Видео: MPEG4, DivX 5, 720x400 (16:9), 23.976 fps, 1 654 Kbps (0.239 bit/pixel)
Аудио: AC-3, 48.0 KHz, 2 ch, 192 Kbps, CBR - русский
Аудио 2: AC-3, 48.0 KHz, 2 ch, 192 Kbps, CBR - английский
Субтитры: нет
Общее
Полное имя : G:\1x01 - Аранжировка в сером и черном (Arrangement in Grey and Black).avi
Формат : AVI
Формат/Информация : Audio Video Interleave
Размер файла : 602 Мбайт
Продолжительность : 41 м. 2 с.
Общий поток : 2052 Кбит/сек
Название фильма : Американская готика. Сезон 1 / American Gothic. Season 1 (2016)
Программа кодирования : VirtualDubMod 1.5.10.2 (build 2540/release)
Библиотека кодирования : VirtualDubMod build 2540/release
Авторское право : miha2154

Видео
Идентификатор : 0
Формат : MPEG-4 Visual
Профиль формата : Advanced [email protected]
Настройки формата : BVOP1 / Custom Matrix
Параметр BVOP формата : 1
Параметр QPel формата : Нет
Параметр GMC формата : Без точки перехода
Параметр матрицы формата : Выборочная
Идентификатор кодека : DX50
Идентификатор кодека/Подсказка : DivX 5
Продолжительность : 41 м. 2 с.
Битрейт : 1654 Кбит/сек
Ширина : 720 пикселей
Высота : 400 пикселей
Соотношение сторон : 16:9
Частота кадров : 23,976 (24000/1001) кадра/сек
Цветовое пространство : YUV
Субдискретизация насыщенности : 4:2:0
Битовая глубина : 8 бит
Тип развёртки : Прогрессивная
Метод сжатия : С потерями
Бит/(Пиксели*Кадры) : 0.239
Размер потока : 485 Мбайт (81%)
Библиотека кодирования : XviD 65

Аудио #1
Идентификатор : 1
Формат : AC-3
Формат/Информация : Audio Coding 3
Коммерческое название : Dolby Digital
Идентификатор кодека : 2000
Продолжительность : 41 м. 2 с.
Вид битрейта : Постоянный
Битрейт : 192 Кбит/сек
Каналы : 2 канала
Channel layout : L R
Частота : 48,0 КГц
Частота кадров : 31,250 кадров/сек (1536 SPF)
Битовая глубина : 16 бит
Метод сжатия : С потерями
Размер потока : 56,4 Мбайт (9%)
Выравнивание : Разделение по промежуткам
Продолжительность промежутка : 42 мс. (1,00 видеокадр)
Время предзагрузки промежутка : 500 мс.
Заголовок : Amedia
ServiceKind/String : Complete Main

Аудио #2
Идентификатор : 2
Формат : AC-3
Формат/Информация : Audio Coding 3
Коммерческое название : Dolby Digital
Идентификатор кодека : 2000
Продолжительность : 41 м. 2 с.
Вид битрейта : Постоянный
Битрейт : 192 Кбит/сек
Каналы : 2 канала
Channel layout : L R
Частота : 48,0 КГц
Частота кадров : 31,250 кадров/сек (1536 SPF)
Битовая глубина : 16 бит
Метод сжатия : С потерями
Размер потока : 56,4 Мбайт (9%)
Выравнивание : Разделение по промежуткам
Продолжительность промежутка : 42 мс. (1,00 видеокадр)
Время предзагрузки промежутка : 500 мс.
Заголовок : Английский
ServiceKind/String : Complete Main


Этот торрент недоступен для скачивания без регистрации, однако доступен по публичной magnet-ссылке (источники с публичных трекеров). Перед использованием ссылки прочтите, пожалуйста Пользовательское соглашение, а также как можно дольше оставайтесь на раздаче! Для того, чтобы скачать сам торрент-файл (который видит больше источников), а также для того, чтобы поблагодарить релизера, вам необходимо зарегистрироваться. Если регистрироваться лень - вы можете также попробовать скачать релиз по нашим партнерским ссылкам ниже. Кроме того, зарегистрированным пользователям не показывается всплывающая реклама при скачивании.

[underver.se].t234288.torrent
Трекер: Зарегистрирован   [ 30.01.2022 19:48 ]  
Статус: проверено (by Robbertta at 31.01.2022 08:09)
Поблагодарили: пока никто не поблагодарил...
Тип торрента: публичный - доступные источники с открытых трекеров: 
Размер: 7.65 GB (занимает 1.75 DVDR, для записи нужно 2 болванки DVDR/RW)
 
 

Яндекс.Метрика powered by Sphinx


В Н И М А Н И Е
Сайт не распространяет и не хранит электронные версии произведений, а лишь бесплатно и без коммерческой выгоды (не требуя взамен платы,
SMS и т.д.) предоставляет доступ к создаваемому пользователями каталогу ссылок на торрент-файлы, которые содержат только списки хеш-сумм.
Убедительная просьба с жалобами обращаться напрямую к пользователю, разместившему торрент файл.

Вверх