Loading...
Error

Черное зеркало / Black Mirror / Сезоны: 1-5 / Серии: 1-22 из 22 + Bandersnatch (Оуэн Харрис, Карл Тиббеттс, Отто Батхёрст, Дэвид Слэйд) [2011-2019, Великобритания, Фантастика, триллер, драма, WEBRip] MVO (LostFilm) + Original

Статистика раздачи
Размер:  17.23 GB   |    Зарегистрирован:  7 месяцев   |    Скачан:  14 раз

Полного источника не было: 4 дня

Сидов:  0  |  0 KB/s  ]   Личеров:  0  |  0 KB/s  ]

* - сиды/пиры с внешних источников

   
 
Автор Сообщение

cheloweck.dojdya Пол:Муж

30-Янв-2022 20:01

Черное зеркало / Black Mirror

Год выпуска: 2011-2019
Страна: Великобритания
Жанр: Фантастика, триллер, драма
Продолжительность: ~00:58:00, ~01:33:12
Перевод: Профессиональный (многоголосый закадровый) | LostFilm
Режиссёр: Оуэн Харрис, Карл Тиббеттс, Отто Батхёрст, Дэвид Слэйд
В ролях: Тоби Кеббелл, Джоди Уиттакер, Том Каллен, Дэниэл Калуя, Джессика Браун-Финдлэй, Рори Киннер, Лидия Уилсон, Руперт Эверетт, Джулия Дэвис, Баши, Брайони Нилан-Фрэнсис, Линдси Дункан, Дональд Самптер, Том Гудман-Хилл, Анна Уилсон-Джонс, Патрик Кеннеди, Аластер Маккензи, Четна Пандья, Финн Уайтхед, Уилл Полтер, Крейг Паркинсон, Элис Лоу, Азим Чаудхри
Описание: Фантастический британский телесериал перенесет зрителя в недалекое будущее, в котором человечество ждет небывалый технологический рост. Новые разработки уже успели полностью изменить наши жизни, плотно засев в окружающую действительность. Сейчас каждый имеет доступ к быстродействующим смартфонам, высококачественным телевизором, производительным компьютерам.
Мы все больше проводим время в соц сетях, предоставляя интернету все больше информации о собственной жизни и окружающих людях. Чужое мнение все больше давит на нас, заставляя следовать за обществом, которое порой может быть очень жестоким. Данный проект призван показать, что ждет людей в будущем и насколько наши жизни изменят современные технологии. Зачастую это оказывается мрачной картиной, в которой мы уже не можем контролировать себя, став марионеткой в руках хакеров, правительства, военных и корпораций. Теперь можно разрушить чью-то жизнь и разбить сердце лишь нажатием на клавиши, больше нет приватности и полной безопасности. Мы всецело отдаемся телевидению и интернету, но порой необходимо остановит этот бурно развивающийся процесс. Иначе произойдет то, что пытаются доказать зрителям создатели этого проекта.
1984 год. Молодой программист Стефан с многолетним чувством вины за смерть матери пытается написать компьютерную игру по фантастическому роману. Вскоре реальность искажается, создавая невообразимую путаницу в и без того нездоровом сознании парня.

Качество: WEBRip
Формат: AVI
Видео: XviD, 704x320, 704x352, 704x368, 720x400, 24.000 fps, 25.000 fps, ~1500 kbps
Аудио #1: 48 kHz, MPEG Layer 3, 2 ch, ~128.00 kbps | Rus
Аудио #2: 48 kHz, MPEG Layer 3, 2 ch, ~128.00 kbps | Eng
Субтитры: Русские форсированные (на надписи и прочее)
Реклама: Отсутствует


Сезон: 1

1-3 серия 720x400

Сезон: 2

1 серия 704x352
2 серия 704x352
3 серия 720x400
4 серия 720x400

Сезон: 3

1 серия 704x368
2 серия 704x320
3 серия 704x368
4 серия 704x320
5 серия 704x352
6 серия 704x320

Сезон: 4

1 серия 704x320
2 серия 704x368
3 серия 704x320
4 серия 704x320
5 серия 704x320
6 серия 704x320

Сезон: 5

1 серия 704x352
2 серия 704x320
3 серия 704x320
[font="Georgia"]
Format : AVI
Format/Info : Audio Video Interleave
File size : 558 MiB
Duration : 44 min 4 s
Overall bit rate : 1 771 kb/s
Writing application : VirtualDubMod 1.5.10.2 (build 2540/release)
Writing library : VirtualDubMod build 2540/release

Video
ID : 0
Format : MPEG-4 Visual
Format profile : Advanced [email protected]
Format settings : BVOP1 / Custom Matrix
Format settings, BVOP : 1
Format settings, QPel : No
Format settings, GMC : No warppoints
Format settings, Matrix : Custom
Codec ID : XVID
Codec ID/Hint : XviD
Duration : 44 min 4 s
Bit rate : 1 501 kb/s
Width : 720 pixels
Height : 400 pixels
Display aspect ratio : 16:9
Frame rate : 25.000 FPS
Color space : YUV
Chroma subsampling : 4:2:0
Bit depth : 8 bits
Scan type : Progressive
Compression mode : Lossy
Bits/(Pixel*Frame) : 0.208
Stream size : 473 MiB (85%)
Writing library : XviD 73

Audio #1
ID : 1
Format : MPEG Audio
Format version : Version 1
Format profile : Layer 3
Format settings : Joint stereo
Codec ID : 55
Codec ID/Hint : MP3
Duration : 44 min 3 s
Bit rate mode : Constant
Bit rate : 128 kb/s
Channel(s) : 2 channels
Sampling rate : 48.0 kHz
Compression mode : Lossy
Stream size : 40.3 MiB (7%)
Alignment : Split accross interleaves
Interleave, duration : 40 ms (1.00 video frame)
Interleave, preload duratio : 500 ms

Audio #2
ID : 2
Format : MPEG Audio
Format version : Version 1
Format profile : Layer 3
Format settings : Joint stereo
Codec ID : 55
Codec ID/Hint : MP3
Duration : 44 min 3 s
Bit rate mode : Constant
Bit rate : 128 kb/s
Channel(s) : 2 channels
Sampling rate : 48.0 kHz
Compression mode : Lossy
Stream size : 40.3 MiB (7%)
Alignment : Split accross interleaves
Interleave, duration : 40 ms (1.00 video frame)
Interleave, preload duratio : 500 ms
[font="Georgia"]


Этот торрент недоступен для скачивания без регистрации, однако доступен по публичной magnet-ссылке (источники с публичных трекеров). Перед использованием ссылки прочтите, пожалуйста Пользовательское соглашение, а также как можно дольше оставайтесь на раздаче! Для того, чтобы скачать сам торрент-файл (который видит больше источников), а также для того, чтобы поблагодарить релизера, вам необходимо зарегистрироваться. Если регистрироваться лень - вы можете также попробовать скачать релиз по нашим партнерским ссылкам ниже. Кроме того, зарегистрированным пользователям не показывается всплывающая реклама при скачивании.

[underver.se].t234289.torrent
Трекер: Зарегистрирован   [ 30.01.2022 20:01 ]  
Статус: проверено (by Robbertta at 31.01.2022 07:34)
Поблагодарили: 1 человек
Тип торрента: публичный - доступные источники с открытых трекеров: 
Размер: 17.23 GB (занимает 3.94 DVDR, для записи нужно 4 болванки DVDR/RW)
 
 

Яндекс.Метрика powered by Sphinx


В Н И М А Н И Е
Сайт не распространяет и не хранит электронные версии произведений, а лишь бесплатно и без коммерческой выгоды (не требуя взамен платы,
SMS и т.д.) предоставляет доступ к создаваемому пользователями каталогу ссылок на торрент-файлы, которые содержат только списки хеш-сумм.
Убедительная просьба с жалобами обращаться напрямую к пользователю, разместившему торрент файл.

Вверх