Loading...
Error

(Hard Rock) Ashkan – In From The Cold (2004) [FLAC (Tracks+.cue), lossless]

Статистика раздачи
Размер:  299 MB   |    Зарегистрирован:  7 месяцев   |    Скачан:  0 раз

Полного источника не было: 4 месяца 25 дней

Сидов:  0  |  0 KB/s  ]   Личеров:  0  |  0 KB/s  ]

* - сиды/пиры с внешних источников

   
 
Автор Сообщение

Rsa2 Пол:Муж

07-Фев-2022 17:11

Ashkan – In From The Cold

Жанр: Hard Rock
Год выпуска: 2004
Носитель: CD
Производитель: Spain Estrella Rockera – ER 42106
Аудиокодек: FLAC
Тип рипа: Tracks+.cue
Битрейт: lossless
Продолжительность: 00:51:54

Треклист:

01 Going Home 6:35
02 Take These Chains 4:27
03 Stop (Wait And Listen) 5:51
04 Backlash Blues 7:42
05 Practically Never Happens 5:56
06 One Of Us Two 5:43
07 Sligthly Country 2:56
08 Darkness 12:08
Exact Audio Copy V1.5 from 20. February 2020 

EAC extraction logfile from 7. February 2022, 22:04

Ashkan / In From The Cold

Used drive : HL-DT-STBD-RE BH16NS60 Adapter: 1 ID: 0

Read mode : Secure
Utilize accurate stream : Yes
Defeat audio cache : Yes
Make use of C2 pointers : No

Read offset correction : 6
Overread into Lead-In and Lead-Out : No
Fill up missing offset samples with silence : Yes
Delete leading and trailing silent blocks : No
Null samples used in CRC calculations : Yes
Used interface : Native Win32 interface for Win NT & 2000
Gap handling : Appended to previous track

Used output format : User Defined Encoder
Selected bitrate : 896 kBit/s
Quality : High
Add ID3 tag : No
Command line compressor : C:\Program Files (x86)\Exact Audio Copy\FLAC\FLAC.EXE
Additional command line options : -6 -V -T "ARTIST=%artist%" -T "TITLE=%title%" -T "ALBUM=%albumtitle%" -T "DATE=%year%" -T "TRACKNUMBER=%tracknr%" -T "GENRE=%genre%" -T "COMMENT=%comment%" -T "BAND=%albuminterpret%" -T "ALBUMARTIST=%albuminterpret%" -T "COMPOSER=%composer%" %haslyrics%--tag-from-file=LYRICS="%lyricsfile%"%haslyrics% -T "DISCNUMBER=%cdnumber%" -T "TOTALDISCS=%totalcds%" -T "TOTALTRACKS=%numtracks%" %hascover%--picture="%coverfile%"%hascover% %source% -o %dest%

TOC of the extracted CD

Track | Start | Length | Start sector | End sector
---------------------------------------------------------
1 | 0:00.00 | 6:34.64 | 0 | 29613
2 | 6:34.64 | 4:48.12 | 29614 | 51225
3 | 11:23.01 | 5:51.23 | 51226 | 77573
4 | 17:14.24 | 7:47.52 | 77574 | 112650
5 | 25:02.01 | 6:00.34 | 112651 | 139684
6 | 31:02.35 | 5:45.26 | 139685 | 165585
7 | 36:47.61 | 2:55.09 | 165586 | 178719
8 | 39:42.70 | 12:11.70 | 178720 | 233614

Track 1

Filename D:\Cinema\Ashkan – In From The Cold\01 Going Home.wav

Pre-gap length 0:00:02.00

Peak level 97.9 %
Extraction speed 4.7 X
Track quality 100.0 %
Test CRC 5E3F43C7
Copy CRC 5E3F43C7
Accurately ripped (confidence 1) [A870ABA0] (AR v1)
Copy OK

Track 2

Filename D:\Cinema\Ashkan – In From The Cold\02 Take These Chains.wav

Peak level 97.9 %
Extraction speed 4.4 X
Track quality 99.9 %
Test CRC CF1FAD12
Copy CRC CF1FAD12
Accurately ripped (confidence 1) [47D9BECD] (AR v1)
Copy OK

Track 3

Filename D:\Cinema\Ashkan – In From The Cold\03 Stop (Wait And Listen).wav

Peak level 97.9 %
Extraction speed 5.9 X
Track quality 100.0 %
Test CRC AAF335CD
Copy CRC AAF335CD
Accurately ripped (confidence 1) [005A4669] (AR v1)
Copy OK

Track 4

Filename D:\Cinema\Ashkan – In From The Cold\04 Backlash Blues.wav

Pre-gap length 0:00:02.42

Peak level 97.9 %
Extraction speed 6.7 X
Track quality 100.0 %
Test CRC B1D309ED
Copy CRC B1D309ED
Accurately ripped (confidence 1) [E847F6D9] (AR v1)
Copy OK

Track 5

Filename D:\Cinema\Ashkan – In From The Cold\05 Practically Never Happens.wav

Pre-gap length 0:00:03.32

Peak level 97.9 %
Extraction speed 6.9 X
Track quality 100.0 %
Test CRC DB7B885D
Copy CRC DB7B885D
Accurately ripped (confidence 1) [D2AA5843] (AR v1)
Copy OK

Track 6

Filename D:\Cinema\Ashkan – In From The Cold\06 One Of Us Two.wav

Pre-gap length 0:00:03.57

Peak level 97.9 %
Extraction speed 7.5 X
Track quality 100.0 %
Test CRC 77F5C7DC
Copy CRC 77F5C7DC
Accurately ripped (confidence 1) [87F3C674] (AR v1)
Copy OK

Track 7

Filename D:\Cinema\Ashkan – In From The Cold\07 Slightly Country.wav

Pre-gap length 0:00:02.02

Peak level 97.9 %
Extraction speed 7.1 X
Track quality 100.0 %
Test CRC 3C5D4DEC
Copy CRC 3C5D4DEC
Accurately ripped (confidence 1) [4692228B] (AR v1)
Copy OK

Track 8

Filename D:\Cinema\Ashkan – In From The Cold\08 Darkness.wav

Pre-gap length 0:00:02.29

Peak level 97.9 %
Extraction speed 8.7 X
Track quality 100.0 %
Test CRC 7D69BBBE
Copy CRC 7D69BBBE
Accurately ripped (confidence 1) [2F190465] (AR v1)
Copy OK

All tracks accurately ripped

No errors occurred

End of status report

---- CUETools DB Plugin V2.1.6

[CTDB TOCID: 2qoV1fpIolVLoPtFDrv5B_1QGaw-] found
Submit result: 2qoV1fpIolVLoPtFDrv5B_1QGaw- has been confirmed
Track | CTDB Status
1 | (3/3) Accurately ripped
2 | (3/3) Accurately ripped
3 | (3/3) Accurately ripped
4 | (3/3) Accurately ripped
5 | (3/3) Accurately ripped
6 | (3/3) Accurately ripped
7 | (3/3) Accurately ripped
8 | (3/3) Accurately ripped

==== Log checksum 614C59AD248007AE2E223263D2A79EC96DE3CB633135337B26736A0E796B126C ====
REM GENRE "Heavy blues" 
REM DATE 1969
REM DISCID 6C0C2A08
REM COMMENT "ExactAudioCopy v1.5"
PERFORMER "Ashkan"
TITLE "In From The Cold"
REM COMPOSER ""
FILE "01 Going Home.wav" WAVE
TRACK 01 AUDIO
TITLE "Going Home"
PERFORMER "Ashkan"
REM COMPOSER ""
FLAGS DCP
INDEX 01 00:00:00
FILE "02 Take These Chains.wav" WAVE
TRACK 02 AUDIO
TITLE "Take These Chains"
PERFORMER "Ashkan"
REM COMPOSER ""
FLAGS DCP
INDEX 01 00:00:00
FILE "03 Stop (Wait And Listen).wav" WAVE
TRACK 03 AUDIO
TITLE "Stop (Wait And Listen)"
PERFORMER "Ashkan"
REM COMPOSER ""
FLAGS DCP
INDEX 01 00:00:00
TRACK 04 AUDIO
TITLE "Backlash Blues"
PERFORMER "Ashkan"
REM COMPOSER ""
FLAGS DCP
INDEX 00 05:48:66
FILE "04 Backlash Blues.wav" WAVE
INDEX 01 00:00:00
TRACK 05 AUDIO
TITLE "Practically Never Happens"
PERFORMER "Ashkan"
REM COMPOSER ""
FLAGS DCP
INDEX 00 07:44:28
FILE "05 Practically Never Happens.wav" WAVE
INDEX 01 00:00:00
TRACK 06 AUDIO
TITLE "One Of Us Two"
PERFORMER "Ashkan"
REM COMPOSER ""
FLAGS DCP
INDEX 00 05:56:66
FILE "06 One Of Us Two.wav" WAVE
INDEX 01 00:00:00
TRACK 07 AUDIO
TITLE "Slightly Country"
PERFORMER "Ashkan"
REM COMPOSER ""
FLAGS DCP
INDEX 00 05:43:24
FILE "07 Slightly Country.wav" WAVE
INDEX 01 00:00:00
TRACK 08 AUDIO
TITLE "Darkness"
PERFORMER "Ashkan"
REM COMPOSER ""
FLAGS DCP
INDEX 00 02:52:62
FILE "08 Darkness.wav" WAVE
INDEX 01 00:00:00

Этот торрент недоступен для скачивания без регистрации, однако доступен по публичной magnet-ссылке (источники с публичных трекеров). Перед использованием ссылки прочтите, пожалуйста Пользовательское соглашение, а также как можно дольше оставайтесь на раздаче! Для того, чтобы скачать сам торрент-файл (который видит больше источников), а также для того, чтобы поблагодарить релизера, вам необходимо зарегистрироваться. Если регистрироваться лень - вы можете также попробовать скачать релиз по нашим партнерским ссылкам ниже. Кроме того, зарегистрированным пользователям не показывается всплывающая реклама при скачивании.

[underver.se].t234992.torrent
Трекер: Зарегистрирован   [ 07.02.2022 17:11 ]  
Статус: проверено (by Robbertta at 09.02.2022 15:03)
Поблагодарили: пока никто не поблагодарил...
Тип торрента: публичный - доступные источники с открытых трекеров: 
Размер: 299 MB (занимает 0.07 DVDR, для записи нужно 1 болванка DVDR/RW)
 
 

Бишеп Пол:Муж

07-Фев-2022 18:29

https://cache.underver.se/image.php?link=http://images.vfl.ru/ii/1644258378/80bc6203/37916531.jpg

Rsa2 Пол:Муж

08-Фев-2022 12:32

Это он и есть!

Яндекс.Метрика powered by Sphinx


В Н И М А Н И Е
Сайт не распространяет и не хранит электронные версии произведений, а лишь бесплатно и без коммерческой выгоды (не требуя взамен платы,
SMS и т.д.) предоставляет доступ к создаваемому пользователями каталогу ссылок на торрент-файлы, которые содержат только списки хеш-сумм.
Убедительная просьба с жалобами обращаться напрямую к пользователю, разместившему торрент файл.

Вверх