Loading...
Error

(Classic Rock, Hard Rock) Boston - Boston (2007) Remastered Japan Edition [FLAC (Image+.CUE), Lossless]

Статистика раздачи
Размер:  348 MB   |    Зарегистрирован:  7 месяцев   |    Скачан:  5 раз

Полного источника не было: 7 дней

Сидов:  0  |  0 KB/s  ]   Личеров:  0  |  0 KB/s  ]

* - сиды/пиры с внешних источников

   
 
Автор Сообщение

Бишеп Пол:Муж

14-Фев-2022 18:30

Boston - Boston

Жанр: Classic Rock, Hard Rock
Год выпуска: 2007
Носитель: CD
Производитель диска: Epic - MHCP 1331
Аудиокодек: FLAC
Тип рипа: Image+.CUE
Битрейт аудио: lossless
Продолжительность: 00:37:44


Треклист:
01. More Than a Feeling (04:45)
02. Peace of Mind (05:03)
03. Foreplay/Long Time (07:47)
04. Rock and Roll Band (03:00)
05. Smokin' (04:21)
06. Hitch a Ride (04:11)
07. Something about You (03:47)
08. Let Me Take You Home Tonight (04:46)

Exact Audio Copy V1.6 from 23. October 2020 

EAC extraction logfile from 20. January 2022, 14:14

Boston (Japan MHCP 1331) / Boston

Used drive : ASUS DRW-24D5MT Adapter: 1 ID: 0

Read mode : Secure
Utilize accurate stream : Yes
Defeat audio cache : Yes
Make use of C2 pointers : No

Read offset correction : 6
Overread into Lead-In and Lead-Out : No
Fill up missing offset samples with silence : Yes
Delete leading and trailing silent blocks : No
Null samples used in CRC calculations : Yes
Used interface : Native Win32 interface for Win NT & 2000

Used output format : User Defined Encoder
Selected bitrate : 1024 kBit/s
Quality : High
Add ID3 tag : No
Command line compressor : C:\Program Files (x86)\Exact Audio Copy\Flac\flac.exe
Additional command line options : -V -8 -T "Date=%year%" -T "Genre=%genre%" %source%

TOC of the extracted CD

Track | Start | Length | Start sector | End sector
---------------------------------------------------------
1 | 0:00.00 | 4:45.10 | 0 | 21384
2 | 4:45.10 | 5:03.44 | 21385 | 44153
3 | 9:48.54 | 7:47.36 | 44154 | 79214
4 | 17:36.15 | 3:00.26 | 79215 | 92740
5 | 20:36.41 | 4:21.41 | 92741 | 112356
6 | 24:58.07 | 4:11.55 | 112357 | 131236
7 | 29:09.62 | 3:47.68 | 131237 | 148329
8 | 32:57.55 | 4:46.51 | 148330 | 169830

Range status and errors

Selected range

Filename F:\ORIGINAL CD\BOSTON [1976] [CD] Boston (Japan MHCP 1331) [EAC-FLAC]\Boston (Japan MHCP 1331) - Boston.wav

Peak level 97.9 %
Extraction speed 6.4 X
Range quality 100.0 %
Test CRC 5E3B93AB
Copy CRC 5E3B93AB
Copy OK

No errors occurred

AccurateRip summary
Track 1 accurately ripped (confidence 81) [959B9669] (AR v2)
Track 2 accurately ripped (confidence 81) [062F6431] (AR v2)
Track 3 accurately ripped (confidence 80) [6DCC6E3E] (AR v2)
Track 4 accurately ripped (confidence 81) [F43D3A31] (AR v2)
Track 5 accurately ripped (confidence 81) [D11E36FF] (AR v2)
Track 6 accurately ripped (confidence 81) [54C3A51E] (AR v2)
Track 7 accurately ripped (confidence 81) [ECD5272A] (AR v2)
Track 8 accurately ripped (confidence 75) [B8AF3314] (AR v2)
All tracks accurately ripped

End of status report

---- CUETools DB Plugin V2.1.6

[CTDB TOCID: 9IcNEy5zyVuU2cq8Uw.QBRn7vuU-] found
Submit result: 9IcNEy5zyVuU2cq8Uw.QBRn7vuU- has been confirmed
Track | CTDB Status
1 | (197/198) Accurately ripped
2 | (197/198) Accurately ripped
3 | (197/198) Accurately ripped
4 | (197/198) Accurately ripped
5 | (197/198) Accurately ripped
6 | (197/198) Accurately ripped
7 | (197/198) Accurately ripped
8 | (175/198) Accurately ripped, or (7/198) differs in 14 samples @04:46:37-04:46:39, or (9/198) differs in 15 samples @04:46:36-04:46:39, or (5/198) differs in 52 samples @04:46:28-04:46:39

==== Log checksum 83F790E214E1057871A77C3BAB8DC7E1D75BD9BFFD9B0811BA04E1973220D225 ====
REM GENRE Rock 
REM DATE 1976
REM DISCID 6B08D808
REM COMMENT "ExactAudioCopy v1.6"
PERFORMER "Boston (Japan MHCP 1331)"
TITLE "Boston"
REM COMPOSER ""
FILE "Boston (Japan MHCP 1331) - Boston.flac" WAVE
TRACK 01 AUDIO
TITLE "More Than a Feeling"
PERFORMER "Boston (Japan MHCP 1331)"
REM COMPOSER ""
INDEX 01 00:00:00
TRACK 02 AUDIO
TITLE "Peace of Mind"
PERFORMER "Boston (Japan MHCP 1331)"
REM COMPOSER ""
INDEX 01 04:45:10
TRACK 03 AUDIO
TITLE "Foreplay / Long Time"
PERFORMER "Boston (Japan MHCP 1331)"
REM COMPOSER ""
INDEX 01 09:48:54
TRACK 04 AUDIO
TITLE "Rock & Roll Band"
PERFORMER "Boston (Japan MHCP 1331)"
REM COMPOSER ""
INDEX 01 17:36:15
TRACK 05 AUDIO
TITLE "Smokin'"
PERFORMER "Boston (Japan MHCP 1331)"
REM COMPOSER ""
INDEX 01 20:36:41
TRACK 06 AUDIO
TITLE "Hitch a Ride"
PERFORMER "Boston (Japan MHCP 1331)"
REM COMPOSER ""
INDEX 01 24:58:07
TRACK 07 AUDIO
TITLE "Something About You"
PERFORMER "Boston (Japan MHCP 1331)"
REM COMPOSER ""
INDEX 01 29:09:62
TRACK 08 AUDIO
TITLE "Let Me Take You Home Tonight"
PERFORMER "Boston (Japan MHCP 1331)"
REM COMPOSER ""
INDEX 01 32:57:55

Этот торрент недоступен для скачивания без регистрации, однако доступен по публичной magnet-ссылке (источники с публичных трекеров). Перед использованием ссылки прочтите, пожалуйста Пользовательское соглашение, а также как можно дольше оставайтесь на раздаче! Для того, чтобы скачать сам торрент-файл (который видит больше источников), а также для того, чтобы поблагодарить релизера, вам необходимо зарегистрироваться. Если регистрироваться лень - вы можете также попробовать скачать релиз по нашим партнерским ссылкам ниже. Кроме того, зарегистрированным пользователям не показывается всплывающая реклама при скачивании.

[underver.se].t235533.torrent
Трекер: Зарегистрирован   [ 14.02.2022 18:30 ]  
Статус: проверено (by Бишеп at 14.02.2022 18:30)
Поблагодарили: пока никто не поблагодарил...
Тип торрента: публичный - доступные источники с открытых трекеров: 
Размер: 348 MB (занимает 0.08 DVDR, для записи нужно 1 болванка DVDR/RW)
 
 

Яндекс.Метрика powered by Sphinx


В Н И М А Н И Е
Сайт не распространяет и не хранит электронные версии произведений, а лишь бесплатно и без коммерческой выгоды (не требуя взамен платы,
SMS и т.д.) предоставляет доступ к создаваемому пользователями каталогу ссылок на торрент-файлы, которые содержат только списки хеш-сумм.
Убедительная просьба с жалобами обращаться напрямую к пользователю, разместившему торрент файл.

Вверх