Loading...
Error

(Jazz, Post Bop) Bill Evans - Undercurrent (2013) 2CD [FLAC (Tracks+.Cue), Lossless]

Статистика раздачи
Размер:  307 MB   |    Зарегистрирован:  7 месяцев   |    Скачан:  4 раза

Полного источника не было: 1 день 6 часов

Сидов:  0  |  0 KB/s  ]   Личеров:  0  |  0 KB/s  ]

* - сиды/пиры с внешних источников

   
 
Автор Сообщение

Бишеп Пол:Муж

18-Фев-2022 12:12

Bill Evans - Undercurrent

Жанр: Jazz, Post Bop
Год выпуска: 2013
Носитель: CD
Производитель диска: Not Now Music - NOT2CD478
Аудиокодек: FLAC
Тип рипа: Tracks+.CUE
Битрейт аудио: lossless
Продолжительность: 01:05:49

Треклист:
01. My Funny Valentine (05:25)
02. I Hear A Rhapsody (04:41)
03. Dream Gypsy (04:36)
04. Romain (05:24)
05. Skating In Central Park (05:24)
06. Darn That Dream (05:09)

Exact Audio Copy V1.3 from 2. September 2016 

EAC extraction logfile from 25. January 2022, 17:53

Bill Evans / Undercurrent - CD1

Used drive : TSSTcorpCDDVDW SH-224FB Adapter: 1 ID: 0

Read mode : Secure
Utilize accurate stream : Yes
Defeat audio cache : Yes
Make use of C2 pointers : No

Read offset correction : 6
Overread into Lead-In and Lead-Out : No
Fill up missing offset samples with silence : Yes
Delete leading and trailing silent blocks : No
Null samples used in CRC calculations : Yes
Used interface : Native Win32 interface for Win NT & 2000
Gap handling : Appended to previous track

Used output format : User Defined Encoder
Selected bitrate : 128 kBit/s
Quality : High
Add ID3 tag : No
Command line compressor : C:\Program Files (x86)\Exact Audio Copy\Flac\flac.exe
Additional command line options : -V -8 -T "Genre=%genre%" -T "Artist=%artist%" -T "Title=%title%" -T "Album=%albumtitle%" -T "Date=%year%" -T "Tracknumber=%tracknr%" -T "Comment=%comment%" %source%

TOC of the extracted CD

Track | Start | Length | Start sector | End sector
---------------------------------------------------------
1 | 0:00.00 | 5:25.09 | 0 | 24383
2 | 5:25.09 | 4:40.67 | 24384 | 45450
3 | 10:06.01 | 4:35.62 | 45451 | 66137
4 | 14:41.63 | 5:23.71 | 66138 | 90433
5 | 20:05.59 | 5:23.62 | 90434 | 114720
6 | 25:29.46 | 5:08.65 | 114721 | 137885

Track 1

Filename C:\ssagwebster\Bill Evans - Undercurrent (2CD, 2013)\CD1 - Undercurrent\01. My Funny Valentine.wav

Pre-gap length 0:00:02.00

Peak level 98.3 %
Extraction speed 1.9 X
Track quality 100.0 %
Test CRC 8DE2C642
Copy CRC 8DE2C642
Accurately ripped (confidence 9) [57D6771E] (AR v2)
Copy OK

Track 2

Filename C:\ssagwebster\Bill Evans - Undercurrent (2CD, 2013)\CD1 - Undercurrent\02. I Hear A Rhapsody.wav

Peak level 98.3 %
Extraction speed 2.1 X
Track quality 100.0 %
Test CRC D8ED3A21
Copy CRC D8ED3A21
Accurately ripped (confidence 9) [D7349DE5] (AR v2)
Copy OK

Track 3

Filename C:\ssagwebster\Bill Evans - Undercurrent (2CD, 2013)\CD1 - Undercurrent\03. Dream Gypsy.wav

Peak level 98.3 %
Extraction speed 2.3 X
Track quality 100.0 %
Test CRC 38B21E30
Copy CRC 38B21E30
Accurately ripped (confidence 9) [9F03235B] (AR v2)
Copy OK

Track 4

Filename C:\ssagwebster\Bill Evans - Undercurrent (2CD, 2013)\CD1 - Undercurrent\04. Romain.wav

Peak level 98.3 %
Extraction speed 2.6 X
Track quality 100.0 %
Test CRC B3AF21CD
Copy CRC B3AF21CD
Accurately ripped (confidence 9) [B3C2E018] (AR v2)
Copy OK

Track 5

Filename C:\ssagwebster\Bill Evans - Undercurrent (2CD, 2013)\CD1 - Undercurrent\05. Skating In Central Park.wav

Peak level 98.3 %
Extraction speed 2.8 X
Track quality 100.0 %
Test CRC 4DF54717
Copy CRC 4DF54717
Accurately ripped (confidence 9) [34921686] (AR v2)
Copy OK

Track 6

Filename C:\ssagwebster\Bill Evans - Undercurrent (2CD, 2013)\CD1 - Undercurrent\06. Darn That Dream.wav

Peak level 98.3 %
Extraction speed 2.9 X
Track quality 100.0 %
Test CRC DEF95CCF
Copy CRC DEF95CCF
Accurately ripped (confidence 9) [36ECAD3E] (AR v2)
Copy OK

All tracks accurately ripped

No errors occurred

End of status report

---- CUETools DB Plugin V2.1.6

[CTDB TOCID: NjD5hi5yBkWJM2Gn8fKhtN7HE1k-] found
Submit result: NjD5hi5yBkWJM2Gn8fKhtN7HE1k- has been confirmed
Track | CTDB Status
1 | (16/16) Accurately ripped
2 | (16/16) Accurately ripped
3 | (16/16) Accurately ripped
4 | (16/16) Accurately ripped
5 | (16/16) Accurately ripped
6 | (16/16) Accurately ripped

==== Log checksum 3E3EAF8F1DBFEC62D4A7B8A90B31E026DD1AE881982D6A5C264D48E7C6FFC212 ====
REM GENRE Jazz 
REM DATE 2013
REM DISCID 43072E06
REM COMMENT "ExactAudioCopy v1.3"
PERFORMER "Bill Evans"
TITLE "Undercurrent - CD1"
REM COMPOSER ""
FILE "01. My Funny Valentine.wav" WAVE
TRACK 01 AUDIO
TITLE "My Funny Valentine"
PERFORMER "Bill Evans"
REM COMPOSER ""
INDEX 01 00:00:00
FILE "02. I Hear A Rhapsody.wav" WAVE
TRACK 02 AUDIO
TITLE "I Hear A Rhapsody"
PERFORMER "Bill Evans"
REM COMPOSER ""
INDEX 01 00:00:00
FILE "03. Dream Gypsy.wav" WAVE
TRACK 03 AUDIO
TITLE "Dream Gypsy"
PERFORMER "Bill Evans"
REM COMPOSER ""
INDEX 01 00:00:00
FILE "04. Romain.wav" WAVE
TRACK 04 AUDIO
TITLE "Romain"
PERFORMER "Bill Evans"
REM COMPOSER ""
INDEX 01 00:00:00
FILE "05. Skating In Central Park.wav" WAVE
TRACK 05 AUDIO
TITLE "Skating In Central Park"
PERFORMER "Bill Evans"
REM COMPOSER ""
INDEX 01 00:00:00
FILE "06. Darn That Dream.wav" WAVE
TRACK 06 AUDIO
TITLE "Darn That Dream"
PERFORMER "Bill Evans"
REM COMPOSER ""
INDEX 01 00:00:00
Треклист:
01. The Washington Twist (06:31)
02. Danny Boy (03:44)
03. Let's Go Back To The Waltz (04:34)
04. With A Song In My Heart (09:15)
05. Goodbye (05:13)
06. I Believe In You (05:53)

Exact Audio Copy V1.3 from 2. September 2016 

EAC extraction logfile from 25. January 2022, 18:27

Bill Evans / Empathy - CD2

Used drive : TSSTcorpCDDVDW SH-224FB Adapter: 1 ID: 0

Read mode : Secure
Utilize accurate stream : Yes
Defeat audio cache : Yes
Make use of C2 pointers : No

Read offset correction : 6
Overread into Lead-In and Lead-Out : No
Fill up missing offset samples with silence : Yes
Delete leading and trailing silent blocks : No
Null samples used in CRC calculations : Yes
Used interface : Native Win32 interface for Win NT & 2000
Gap handling : Appended to previous track

Used output format : User Defined Encoder
Selected bitrate : 128 kBit/s
Quality : High
Add ID3 tag : No
Command line compressor : C:\Program Files (x86)\Exact Audio Copy\Flac\flac.exe
Additional command line options : -V -8 -T "Genre=%genre%" -T "Artist=%artist%" -T "Title=%title%" -T "Album=%albumtitle%" -T "Date=%year%" -T "Tracknumber=%tracknr%" -T "Comment=%comment%" %source%

TOC of the extracted CD

Track | Start | Length | Start sector | End sector
---------------------------------------------------------
1 | 0:00.00 | 6:30.45 | 0 | 29294
2 | 6:30.45 | 3:44.03 | 29295 | 46097
3 | 10:14.48 | 4:34.05 | 46098 | 66652
4 | 14:48.53 | 9:15.23 | 66653 | 108300
5 | 24:04.01 | 5:12.73 | 108301 | 131773
6 | 29:16.74 | 5:53.33 | 131774 | 158281

Track 1

Filename C:\ssagwebster\Bill Evans - Undercurrent (2CD, 2013)\CD2 - Empathy\01. The Washington Twist.wav

Pre-gap length 0:00:02.00

Peak level 98.3 %
Extraction speed 2.0 X
Track quality 100.0 %
Test CRC 1E71DBA4
Copy CRC 1E71DBA4
Accurately ripped (confidence 10) [856AE833] (AR v2)
Copy OK

Track 2

Filename C:\ssagwebster\Bill Evans - Undercurrent (2CD, 2013)\CD2 - Empathy\02. Danny Boy.wav

Peak level 71.0 %
Extraction speed 2.1 X
Track quality 100.0 %
Test CRC 78F56284
Copy CRC 78F56284
Accurately ripped (confidence 10) [BAF9CCD5] (AR v2)
Copy OK

Track 3

Filename C:\ssagwebster\Bill Evans - Undercurrent (2CD, 2013)\CD2 - Empathy\03. Let's Go Back To The Waltz.wav

Peak level 98.2 %
Extraction speed 2.3 X
Track quality 100.0 %
Test CRC 93EDAC3B
Copy CRC 93EDAC3B
Accurately ripped (confidence 10) [4E483648] (AR v2)
Copy OK

Track 4

Filename C:\ssagwebster\Bill Evans - Undercurrent (2CD, 2013)\CD2 - Empathy\04. With A Song In My Heart.wav

Peak level 98.3 %
Extraction speed 2.7 X
Track quality 100.0 %
Test CRC 31173154
Copy CRC 31173154
Accurately ripped (confidence 10) [3FC66D1C] (AR v2)
Copy OK

Track 5

Filename C:\ssagwebster\Bill Evans - Undercurrent (2CD, 2013)\CD2 - Empathy\05. Goodbye.wav

Peak level 74.3 %
Extraction speed 2.9 X
Track quality 100.0 %
Test CRC D12D5164
Copy CRC D12D5164
Accurately ripped (confidence 10) [AE4CA39F] (AR v2)
Copy OK

Track 6

Filename C:\ssagwebster\Bill Evans - Undercurrent (2CD, 2013)\CD2 - Empathy\06. I Believe In You.wav

Peak level 98.3 %
Extraction speed 3.1 X
Track quality 100.0 %
Test CRC 0A3B8CE7
Copy CRC 0A3B8CE7
Accurately ripped (confidence 10) [44C695B3] (AR v2)
Copy OK

All tracks accurately ripped

No errors occurred

End of status report

---- CUETools DB Plugin V2.1.6

[CTDB TOCID: r8CbhpKq9h1aMYbKOuf0t1yjhZA-] found
Submit result: r8CbhpKq9h1aMYbKOuf0t1yjhZA- has been confirmed
Track | CTDB Status
1 | (17/17) Accurately ripped
2 | (17/17) Accurately ripped
3 | (16/17) Accurately ripped
4 | (16/17) Accurately ripped
5 | (17/17) Accurately ripped
6 | (17/17) Accurately ripped

==== Log checksum D83637F97308C76C7C472BA6BF536B5204AA8AEFE9D10529007FA2CCDB5F00A6 ====
REM GENRE Jazz 
REM DATE 2013
REM DISCID 52083E06
REM COMMENT "ExactAudioCopy v1.3"
PERFORMER "Bill Evans"
TITLE "Empathy - CD2"
REM COMPOSER ""
FILE "01. The Washington Twist.wav" WAVE
TRACK 01 AUDIO
TITLE "The Washington Twist"
PERFORMER "Bill Evans"
REM COMPOSER ""
INDEX 01 00:00:00
FILE "02. Danny Boy.wav" WAVE
TRACK 02 AUDIO
TITLE "Danny Boy"
PERFORMER "Bill Evans"
REM COMPOSER ""
INDEX 01 00:00:00
FILE "03. Let's Go Back To The Waltz.wav" WAVE
TRACK 03 AUDIO
TITLE "Let's Go Back To The Waltz"
PERFORMER "Bill Evans"
REM COMPOSER ""
INDEX 01 00:00:00
FILE "04. With A Song In My Heart.wav" WAVE
TRACK 04 AUDIO
TITLE "With A Song In My Heart"
PERFORMER "Bill Evans"
REM COMPOSER ""
INDEX 01 00:00:00
FILE "05. Goodbye.wav" WAVE
TRACK 05 AUDIO
TITLE "Goodbye"
PERFORMER "Bill Evans"
REM COMPOSER ""
INDEX 01 00:00:00
FILE "06. I Believe In You.wav" WAVE
TRACK 06 AUDIO
TITLE "I Believe In You"
PERFORMER "Bill Evans"
REM COMPOSER ""
INDEX 01 00:00:00

Этот торрент недоступен для скачивания без регистрации, однако доступен по публичной magnet-ссылке (источники с публичных трекеров). Перед использованием ссылки прочтите, пожалуйста Пользовательское соглашение, а также как можно дольше оставайтесь на раздаче! Для того, чтобы скачать сам торрент-файл (который видит больше источников), а также для того, чтобы поблагодарить релизера, вам необходимо зарегистрироваться. Если регистрироваться лень - вы можете также попробовать скачать релиз по нашим партнерским ссылкам ниже. Кроме того, зарегистрированным пользователям не показывается всплывающая реклама при скачивании.

[underver.se].t235865.torrent
Трекер: Зарегистрирован   [ 18.02.2022 12:12 ]  
Статус: проверено (by Бишеп at 18.02.2022 12:12)
Поблагодарили: пока никто не поблагодарил...
Тип торрента: публичный - доступные источники с открытых трекеров: 
Размер: 307 MB (занимает 0.07 DVDR, для записи нужно 1 болванка DVDR/RW)
 
 

Яндекс.Метрика powered by Sphinx


В Н И М А Н И Е
Сайт не распространяет и не хранит электронные версии произведений, а лишь бесплатно и без коммерческой выгоды (не требуя взамен платы,
SMS и т.д.) предоставляет доступ к создаваемому пользователями каталогу ссылок на торрент-файлы, которые содержат только списки хеш-сумм.
Убедительная просьба с жалобами обращаться напрямую к пользователю, разместившему торрент файл.

Вверх