Loading...
Error

(Hard Rock, Heavy Metal) Marchello - Destiny (1989) Japanese Edition [FLAC (Image+.CUE), Lossless]

Статистика раздачи
Размер:  447 MB   |    Зарегистрирован:  7 месяцев   |    Скачан:  3 раза

Полного источника не было: 6 месяцев

Сидов:  0  |  0 KB/s  ]   Личеров:  0  |  0 KB/s  ]

* - сиды/пиры с внешних источников

   
 
Автор Сообщение

Бишеп Пол:Муж

18-Фев-2022 17:43

Marchello - Destiny

Жанр: Hard Rock, Heavy Metal
Год выпуска: 1989
Носитель: CD
Производитель диска: CBS/Sony - 25DP 5519
Аудиокодек: FLAC
Тип рипа: Image+.CUE
Битрейт аудио: lossless
Продолжительность: 00:48:12


Треклист:
01. Brown Eyes = ブラウン・アイズ
02. Tight Pants = タイト・パンツ
03. Destiny = デスティニー
04. First Love = ファースト・ラブ
05. What If = ホワット・イフ
06. Living For # 1 = リビング・フォー・#1
07. Love Begins Again = ラブ・ビギンズ・アゲイン
08. Heavy Weight Champ Of Love = ヘビー・ウエイト・チャンプ・オブ・ラブ
09. She's Magic = シーズ・マジック
10. Winners Never Lose = ウィナーズ・ネバー・ルーズ
11. Rock N' Roll Rumble = ロックン・ロール・ランブル

Exact Audio Copy V1.5 from 20. February 2020 

EAC extraction logfile from 26. January 2022, 17:07

Marchello / Destiny (Sample CD 25DP 5519)

Used drive : PLEXTOR BD-R PX-B950SA Adapter: 1 ID: 0

Read mode : Secure
Utilize accurate stream : Yes
Defeat audio cache : Yes
Make use of C2 pointers : No

Read offset correction : 6
Overread into Lead-In and Lead-Out : No
Fill up missing offset samples with silence : Yes
Delete leading and trailing silent blocks : No
Null samples used in CRC calculations : Yes
Used interface : Native Win32 interface for Win NT & 2000

Used output format : User Defined Encoder
Selected bitrate : 1024 kBit/s
Quality : High
Add ID3 tag : No
Command line compressor : C:\Program Files (x86)\Exact Audio Copy\FLAC\FLAC.EXE
Additional command line options : -6 -V -T "ARTIST=%artist%" -T "TITLE=%title%" -T "ALBUM=%albumtitle%" -T "DATE=%year%" -T "TRACKNUMBER=%tracknr%" -T "GENRE=%genre%" -T "COMMENT=%comment%" -T "BAND=%albuminterpret%" -T "ALBUMARTIST=%albuminterpret%" -T "COMPOSER=%composer%" %haslyrics%--tag-from-file=LYRICS="%lyricsfile%"%haslyrics% -T "DISCNUMBER=%cdnumber%" -T "TOTALDISCS=%totalcds%" -T "TOTALTRACKS=%numtracks%" %hascover%--picture="%coverfile%"%hascover% %source% -o %dest%

TOC of the extracted CD

Track | Start | Length | Start sector | End sector
---------------------------------------------------------
1 | 0:00.00 | 4:29.17 | 0 | 20191
2 | 4:29.17 | 4:18.35 | 20192 | 39576
3 | 8:47.52 | 6:26.18 | 39577 | 68544
4 | 15:13.70 | 4:54.55 | 68545 | 90649
5 | 20:08.50 | 3:51.30 | 90650 | 108004
6 | 24:00.05 | 3:50.62 | 108005 | 125316
7 | 27:50.67 | 4:30.50 | 125317 | 145616
8 | 32:21.42 | 4:12.70 | 145617 | 164586
9 | 36:34.37 | 4:15.38 | 164587 | 183749
10 | 40:50.00 | 2:52.65 | 183750 | 196714
11 | 43:42.65 | 4:28.72 | 196715 | 216886

Range status and errors

Selected range

Filename G:\RIP\Marchello 1989 Japanese Pressing FLAC by alzal\Marchello - Destiny (Sample CD 25DP 5519).wav

Peak level 100.0 %
Extraction speed 8.3 X
Range quality 100.0 %
Test CRC 0E17D827
Copy CRC 0E17D827
Copy OK

No errors occurred

AccurateRip summary
Track 1 accurately ripped (confidence 3) [52F7487F] (AR v2)
Track 2 accurately ripped (confidence 3) [24BACEEA] (AR v2)
Track 3 accurately ripped (confidence 3) [6BFBC571] (AR v2)
Track 4 accurately ripped (confidence 3) [E8C6DF21] (AR v2)
Track 5 accurately ripped (confidence 3) [D6A00B12] (AR v2)
Track 6 accurately ripped (confidence 3) [988EA298] (AR v2)
Track 7 accurately ripped (confidence 3) [987C4BFA] (AR v2)
Track 8 accurately ripped (confidence 3) [E52DA395] (AR v2)
Track 9 accurately ripped (confidence 3) [173D487D] (AR v2)
Track 10 accurately ripped (confidence 3) [4FC84A6F] (AR v2)
Track 11 accurately ripped (confidence 3) [771BA2B0] (AR v2)
All tracks accurately ripped

End of status report

---- CUETools DB Plugin V2.1.6

[CTDB TOCID: NSI3r9LUkylXF_mlVnHUQHRMbiA-] found
Submit result: already submitted
Track | CTDB Status
1 | (12/13) Accurately ripped
2 | (12/13) Accurately ripped
3 | (12/13) Accurately ripped
4 | (12/13) Accurately ripped
5 | (12/13) Accurately ripped
6 | (13/13) Accurately ripped
7 | (11/13) Accurately ripped
8 | (13/13) Accurately ripped
9 | (12/13) Accurately ripped
10 | (12/13) Accurately ripped
11 | (13/13) Accurately ripped

==== Log checksum 7D9E33D3F3A483F34AD2968EBC4B048159720E028C7E8864F3294F39ADE1CC87 ====
REM GENRE "Hard Rock | Melodic Metal" 
REM DATE 1989
REM DISCID 880B4B0B
REM COMMENT "ExactAudioCopy v1.5"
PERFORMER "Marchello"
TITLE "Destiny (Sample CD 25DP 5519) "
REM COMPOSER ""
FILE "Marchello - Destiny (Sample CD 25DP 5519).flac" WAVE
TRACK 01 AUDIO
TITLE "Brown Eyes"
PERFORMER "Marchello"
REM COMPOSER ""
INDEX 01 00:00:00
TRACK 02 AUDIO
TITLE "Tight Pants"
PERFORMER "Marchello"
REM COMPOSER ""
INDEX 01 04:29:17
TRACK 03 AUDIO
TITLE "Destiny"
PERFORMER "Marchello"
REM COMPOSER ""
INDEX 01 08:47:52
TRACK 04 AUDIO
TITLE "First Love"
PERFORMER "Marchello"
REM COMPOSER ""
INDEX 01 15:13:70
TRACK 05 AUDIO
TITLE "What If"
PERFORMER "Marchello"
REM COMPOSER ""
INDEX 01 20:08:50
TRACK 06 AUDIO
TITLE "Living For #1"
PERFORMER "Marchello"
REM COMPOSER ""
INDEX 01 24:00:05
TRACK 07 AUDIO
TITLE "Love Begins Again"
PERFORMER "Marchello"
REM COMPOSER ""
INDEX 01 27:50:67
TRACK 08 AUDIO
TITLE "Heavy Weight Champ Of Love"
PERFORMER "Marchello"
REM COMPOSER ""
INDEX 01 32:21:42
TRACK 09 AUDIO
TITLE "She's Magic"
PERFORMER "Marchello"
REM COMPOSER ""
INDEX 01 36:34:37
TRACK 10 AUDIO
TITLE "Winners Never Lose"
PERFORMER "Marchello"
REM COMPOSER ""
INDEX 01 40:50:00
TRACK 11 AUDIO
TITLE "Rock N' Roll Rumble"
PERFORMER "Marchello"
REM COMPOSER ""
INDEX 01 43:42:65

Этот торрент недоступен для скачивания без регистрации, однако доступен по публичной magnet-ссылке (источники с публичных трекеров). Перед использованием ссылки прочтите, пожалуйста Пользовательское соглашение, а также как можно дольше оставайтесь на раздаче! Для того, чтобы скачать сам торрент-файл (который видит больше источников), а также для того, чтобы поблагодарить релизера, вам необходимо зарегистрироваться. Если регистрироваться лень - вы можете также попробовать скачать релиз по нашим партнерским ссылкам ниже. Кроме того, зарегистрированным пользователям не показывается всплывающая реклама при скачивании.

[underver.se].t235888.torrent
Трекер: Зарегистрирован   [ 18.02.2022 17:43 ]  
Статус: проверено (by Бишеп at 18.02.2022 17:43)
Поблагодарили: пока никто не поблагодарил...
Тип торрента: публичный - доступные источники с открытых трекеров: 
Размер: 447 MB (занимает 0.1 DVDR, для записи нужно 1 болванка DVDR/RW)
 
 

Яндекс.Метрика powered by Sphinx


В Н И М А Н И Е
Сайт не распространяет и не хранит электронные версии произведений, а лишь бесплатно и без коммерческой выгоды (не требуя взамен платы,
SMS и т.д.) предоставляет доступ к создаваемому пользователями каталогу ссылок на торрент-файлы, которые содержат только списки хеш-сумм.
Убедительная просьба с жалобами обращаться напрямую к пользователю, разместившему торрент файл.

Вверх