Loading...
Error

Уральские пельмени. Триумфальная сварка [эфир от 18.02] (Константин Куц, Леонид Коновалов, Анастасия Гуделова) [2022 г., ТВ-шоу, юмор, сатира, развлекательный, WEB-DL 1080p]

Статистика раздачи
Размер:  2.39 GB   |    Зарегистрирован:  7 месяцев   |    Скачан:  9 раз

Полного источника не было: 11 часов

Сидов:  0  |  0 KB/s  ]   Личеров:  0  |  0 KB/s  ]

* - сиды/пиры с внешних источников

   
 
Автор Сообщение

FiNikola Пол:Муж

19-Фев-2022 03:28

Уральские пельмени. Триумфальная сварка [эфир от 18.02]


Название: Уральские пельмени. Триумфальная сварка
Год выхода: 2022
Жанр: ТВ-шоу, юмор, сатира, развлекательный
Режиссер: Константин Куц, Леонид Коновалов, Анастасия Гуделова
В ролях: Дмитрий Брекоткин, Сергей Ершов, Сергей Исаев, Сергей Калугин, Вячеслав Мясников, Александр Попов, Андрей Рожков, Дмитрий Соколов (V), Максим Ярица, Стефания-Марьяна Гурская, Илана Юрьева, Ксения Корнева

Описание:
Когда сваи входят в землю, как в масло. Когда весело шуршат самосвалы с щебнем. Когда в котлован струится свежий бетон.



Страна: Россия
Студия: YBW Group, СТС
Продолжительность: 01:11:43
Язык: Русский

Дата эфира: 18 февраля 2022 года (СТС)
Примечание: Без рекламы

Формат: MKV
Качество: WEB-DL 1080p
Видео: MPEG-4 AVC, 4600 кбит/с, 1920x1080
Звук: AC3, 2 ch, 192 Кбит/с
Общее
Уникальный идентификатор : 323348827886475959579537807718768319461 (0xF342B811194EB3839885F40F4E321BE5)
Полное имя : D:Uralskie.pelmeni.18.02.2022.WEB-DL.1080p.mkv
Формат : Matroska
Версия формата : Version 4
Размер файла : 2,39 Гбайт
Продолжительность : 1 ч. 11 м.
Общий поток : 4 763 Кбит/сек
Название фильма : Uralskie.pelmeni.18.02.2022.WEB-DL.1080p
Дата кодирования : UTC 2022-02-18 23:32:07
Программа кодирования : mkvmerge v65.0.0 ('Too Much') 64-bit
Библиотека кодирования : libebml v1.4.2 + libmatroska v1.6.4
Attachments : poster.jpg

Видео
Идентификатор : 1
Формат : AVC
Формат/Информация : Advanced Video Codec
Профиль формата : [email protected]
Настройки формата : CABAC / 3 Ref Frames
Параметр CABAC формата : Да
Параметр RefFrames формата : 3 кадра
Идентификатор кодека : V_MPEG4/ISO/AVC
Продолжительность : 1 ч. 11 м.
Битрейт : 4 569 Кбит/сек
Ширина : 1 920 пикселей
Высота : 1 080 пикселей
Соотношение сторон : 16:9
Режим частоты кадров : Постоянный
Частота кадров : 25,000 кадров/сек
Цветовое пространство : YUV
Субдискретизация насыщенности : 4:2:0
Битовая глубина : 8 бит
Тип развёртки : Прогрессивная
Бит/(Пиксели*Кадры) : 0.088
Размер потока : 2,29 Гбайт (96%)
Default : Да
Forced : Нет
Цветовой диапазон : Limited
Основные цвета : BT.709
Характеристики трансфера : BT.709
Коэффициенты матрицы : BT.709

Аудио
Идентификатор : 2
Формат : AC-3
Формат/Информация : Audio Coding 3
Коммерческое название : Dolby Digital
Идентификатор кодека : A_AC3
Продолжительность : 1 ч. 11 м.
Вид битрейта : Постоянный
Битрейт : 192 Кбит/сек
Каналы : 2 канала
Channel layout : L R
Частота : 48,0 КГц
Частота кадров : 31,250 кадров/сек (1536 SPF)
Метод сжатия : С потерями
Размер потока : 98,5 Мбайт (4%)
Service kind : Complete Main
Default : Да
Forced : Нет

Этот торрент недоступен для скачивания без регистрации, однако доступен по публичной magnet-ссылке (источники с публичных трекеров). Перед использованием ссылки прочтите, пожалуйста Пользовательское соглашение, а также как можно дольше оставайтесь на раздаче! Для того, чтобы скачать сам торрент-файл (который видит больше источников), а также для того, чтобы поблагодарить релизера, вам необходимо зарегистрироваться. Если регистрироваться лень - вы можете также попробовать скачать релиз по нашим партнерским ссылкам ниже. Кроме того, зарегистрированным пользователям не показывается всплывающая реклама при скачивании.

[underver.se].t235913.torrent
Трекер: Зарегистрирован   [ 19.02.2022 03:28 ]  
Статус: проверено (by FiNikola at 19.02.2022 03:28)
Поблагодарили: пока никто не поблагодарил...
Тип торрента: публичный - доступные источники с открытых трекеров: 
Размер: 2.39 GB (занимает 0.55 DVDR, для записи нужно 1 болванка DVDR/RW)
 
 

Яндекс.Метрика powered by Sphinx


В Н И М А Н И Е
Сайт не распространяет и не хранит электронные версии произведений, а лишь бесплатно и без коммерческой выгоды (не требуя взамен платы,
SMS и т.д.) предоставляет доступ к создаваемому пользователями каталогу ссылок на торрент-файлы, которые содержат только списки хеш-сумм.
Убедительная просьба с жалобами обращаться напрямую к пользователю, разместившему торрент файл.

Вверх