Loading...
Error

(Jazz, Swing) Trummy Young - 1944 - 1946 (1998) [FLAC (Tracks+.Cue), Lossless]

Статистика раздачи
Размер:  145 MB   |    Зарегистрирован:  7 месяцев   |    Скачан:  2 раза

Полного источника не было: 2 месяца 4 дня

Сидов:  0  |  0 KB/s  ]   Личеров:  0  |  0 KB/s  ]

* - сиды/пиры с внешних источников

   
 
Автор Сообщение

Бишеп Пол:Муж

19-Фев-2022 12:40

Trummy Young - 1944 - 1946

Жанр: Jazz, Swing
Год выпуска: 1998
Носитель: CD
Производитель диска: Classics - CLASSICS 1037
Аудиокодек: FLAC
Тип рипа: Tracks+.CUE
Битрейт аудио: lossless
Продолжительность: 01:10:16


Треклист:
01. Hollywood (03:35)
02. Talk Of The Town (04:32)
03. Good'n Groovy (03:04)
04. Rattle And Roll (02:55)
05. I'm Living For Today (03:09)
06. Behind The Eight Bar (02:59)
07. Four Or Tive Times (05:12)
08. I Want A Little Girl (05:32)
09. Two Sleepy People (05:12)
10. Tea For Two (05:04)
11. Thanks For The Memory (04:49)
12. Don't Be A Baby, Baby (02:21)
13. Lazy Lullaby (03:08)
14. Try, Try Again (03:19)
15. Tidal Wave (03:17)
16. Fruitie Cutie (03:06)
17. Blues Triste (03:02)
18. Johnson Rock (03:16)
19. Lucky Draw (02:44)

Exact Audio Copy V1.0 beta 3 from 29. August 2011 

EAC extraction logfile from 24. December 2014, 10:30

Trummy Young / 1944 - 1946

Used drive : PLEXTOR CD-R PX-W2410A Adapter: 0 ID: 0

Read mode : Secure
Utilize accurate stream : Yes
Defeat audio cache : Yes
Make use of C2 pointers : No

Read offset correction : 98
Overread into Lead-In and Lead-Out : No
Fill up missing offset samples with silence : Yes
Delete leading and trailing silent blocks : No
Null samples used in CRC calculations : Yes
Used interface : Native Win32 interface for Win NT & 2000
Gap handling : Appended to previous track

Used output format : User Defined Encoder
Selected bitrate : 1024 kBit/s
Quality : High
Add ID3 tag : No
Command line compressor : C:\Program Files (x86)\Exact Audio Copy\Flac\flac.exe
Additional command line options : -8 -V -T "ARTIST=%artist%" -T "TITLE=%title%" -T "ALBUM=%albumtitle%" -T "DATE=%year%" -T "TRACKNUMBER=%tracknr%" -T "GENRE=%genre%" -T "PERFORMER=%albuminterpret%" -T "COMPOSER=%composer%" %haslyrics%--tag-from-file=LYRICS="%lyricsfile%"%haslyrics% -T "ALBUMARTIST=%albumartist%" -T "DISCNUMBER=%cdnumber%" -T "TOTALDISCS=%totalcds%" -T "TOTALTRACKS=%numtracks%" -T "COMMENT=%comment%" %source% -o %dest%

TOC of the extracted CD

Track | Start | Length | Start sector | End sector
---------------------------------------------------------
1 | 0:00.32 | 3:34.45 | 32 | 16126
2 | 3:35.02 | 4:32.23 | 16127 | 36549
3 | 8:07.25 | 3:03.71 | 36550 | 50345
4 | 11:11.21 | 2:55.34 | 50346 | 63504
5 | 14:06.55 | 3:08.45 | 63505 | 77649
6 | 17:15.25 | 2:59.09 | 77650 | 91083
7 | 20:14.34 | 5:11.43 | 91084 | 114451
8 | 25:26.02 | 5:31.48 | 114452 | 139324
9 | 30:57.50 | 5:12.12 | 139325 | 162736
10 | 36:09.62 | 5:04.34 | 162737 | 185570
11 | 41:14.21 | 4:48.68 | 185571 | 207238
12 | 46:03.14 | 2:20.41 | 207239 | 217779
13 | 48:23.55 | 3:08.29 | 217780 | 231908
14 | 51:32.09 | 3:19.05 | 231909 | 246838
15 | 54:51.14 | 3:16.59 | 246839 | 261597
16 | 58:07.73 | 3:06.21 | 261598 | 275568
17 | 61:14.19 | 3:02.33 | 275569 | 289251
18 | 64:16.52 | 3:15.54 | 289252 | 303930
19 | 67:32.31 | 2:44.29 | 303931 | 316259

Track 1

Filename D:\My Documents\Dropbox\My Music\What.cd project\Trummy Young - 1998 - 1944-1946 [FLAC]\01 - Hollywood.wav

Pre-gap length 0:00:02.42

Peak level 92.2 %
Extraction speed 8.1 X
Track quality 100.0 %
Test CRC 17A909B8
Copy CRC 17A909B8
Accurately ripped (confidence 1) [8A551541] (AR v1)
Copy OK

Track 2

Filename D:\My Documents\Dropbox\My Music\What.cd project\Trummy Young - 1998 - 1944-1946 [FLAC]\02 - Talk Of The town.wav

Peak level 82.7 %
Extraction speed 9.1 X
Track quality 100.0 %
Test CRC 81E972A3
Copy CRC 81E972A3
Accurately ripped (confidence 1) [5FFE3583] (AR v1)
Copy OK

Track 3

Filename D:\My Documents\Dropbox\My Music\What.cd project\Trummy Young - 1998 - 1944-1946 [FLAC]\03 - Good'n Groovy.wav

Peak level 85.3 %
Extraction speed 7.6 X
Track quality 99.9 %
Test CRC D39FE47F
Copy CRC D39FE47F
Accurately ripped (confidence 1) [D81BFC72] (AR v1)
Copy OK

Track 4

Filename D:\My Documents\Dropbox\My Music\What.cd project\Trummy Young - 1998 - 1944-1946 [FLAC]\04 - Rattle And Roll.wav

Peak level 80.8 %
Extraction speed 9.9 X
Track quality 100.0 %
Test CRC 1F3447FD
Copy CRC 1F3447FD
Accurately ripped (confidence 1) [0675301D] (AR v1)
Copy OK

Track 5

Filename D:\My Documents\Dropbox\My Music\What.cd project\Trummy Young - 1998 - 1944-1946 [FLAC]\05 - I'm Living For Today.wav

Peak level 86.9 %
Extraction speed 10.2 X
Track quality 100.0 %
Test CRC CFFF8E18
Copy CRC CFFF8E18
Accurately ripped (confidence 1) [3010AB53] (AR v1)
Copy OK

Track 6

Filename D:\My Documents\Dropbox\My Music\What.cd project\Trummy Young - 1998 - 1944-1946 [FLAC]\06 - Behind The Eight Bar.wav

Peak level 83.2 %
Extraction speed 10.7 X
Track quality 100.0 %
Test CRC 32BC8385
Copy CRC 32BC8385
Accurately ripped (confidence 1) [FEFE2A30] (AR v1)
Copy OK

Track 7

Filename D:\My Documents\Dropbox\My Music\What.cd project\Trummy Young - 1998 - 1944-1946 [FLAC]\07 - Four Or Tive Times.wav

Peak level 91.2 %
Extraction speed 11.4 X
Track quality 100.0 %
Test CRC 1A6C244F
Copy CRC 1A6C244F
Accurately ripped (confidence 1) [FCD33472] (AR v1)
Copy OK

Track 8

Filename D:\My Documents\Dropbox\My Music\What.cd project\Trummy Young - 1998 - 1944-1946 [FLAC]\08 - I Want A Little Girl.wav

Peak level 84.4 %
Extraction speed 10.0 X
Track quality 99.9 %
Test CRC 2F412C6B
Copy CRC 2F412C6B
Accurately ripped (confidence 1) [3B56BA14] (AR v1)
Copy OK

Track 9

Filename D:\My Documents\Dropbox\My Music\What.cd project\Trummy Young - 1998 - 1944-1946 [FLAC]\09 - Two Sleepy People.wav

Peak level 75.1 %
Extraction speed 12.0 X
Track quality 100.0 %
Test CRC 5CD950C9
Copy CRC 5CD950C9
Accurately ripped (confidence 1) [DB8EE942] (AR v1)
Copy OK

Track 10

Filename D:\My Documents\Dropbox\My Music\What.cd project\Trummy Young - 1998 - 1944-1946 [FLAC]\10 - Tea For Two.wav

Peak level 92.2 %
Extraction speed 10.1 X
Track quality 99.9 %
Test CRC 32929F72
Copy CRC 32929F72
Accurately ripped (confidence 1) [8E608612] (AR v1)
Copy OK

Track 11

Filename D:\My Documents\Dropbox\My Music\What.cd project\Trummy Young - 1998 - 1944-1946 [FLAC]\11 - Thanks For The Memory.wav

Peak level 92.2 %
Extraction speed 12.3 X
Track quality 100.0 %
Test CRC 08367AE2
Copy CRC 08367AE2
Accurately ripped (confidence 1) [9C61712B] (AR v1)
Copy OK

Track 12

Filename D:\My Documents\Dropbox\My Music\What.cd project\Trummy Young - 1998 - 1944-1946 [FLAC]\12 - Don't Be A Baby, Baby.wav

Peak level 92.2 %
Extraction speed 11.3 X
Track quality 100.0 %
Test CRC 8D729BD1
Copy CRC 8D729BD1
Accurately ripped (confidence 1) [AECE9744] (AR v1)
Copy OK

Track 13

Filename D:\My Documents\Dropbox\My Music\What.cd project\Trummy Young - 1998 - 1944-1946 [FLAC]\13 - Lazy Lullaby.wav

Peak level 92.2 %
Extraction speed 11.8 X
Track quality 100.0 %
Test CRC 9C3738A8
Copy CRC 9C3738A8
Accurately ripped (confidence 1) [28D37E7F] (AR v1)
Copy OK

Track 14

Filename D:\My Documents\Dropbox\My Music\What.cd project\Trummy Young - 1998 - 1944-1946 [FLAC]\14 - Try, Try Again.wav

Peak level 92.2 %
Extraction speed 11.9 X
Track quality 100.0 %
Test CRC C937F0DB
Copy CRC C937F0DB
Accurately ripped (confidence 1) [177FB312] (AR v1)
Copy OK

Track 15

Filename D:\My Documents\Dropbox\My Music\What.cd project\Trummy Young - 1998 - 1944-1946 [FLAC]\15 - Tidal Wave.wav

Peak level 98.6 %
Extraction speed 12.0 X
Track quality 100.0 %
Test CRC 48098F6E
Copy CRC 48098F6E
Accurately ripped (confidence 1) [22DF012C] (AR v1)
Copy OK

Track 16

Filename D:\My Documents\Dropbox\My Music\What.cd project\Trummy Young - 1998 - 1944-1946 [FLAC]\16 - Fruitie Cutie.wav

Peak level 92.1 %
Extraction speed 9.0 X
Track quality 99.9 %
Test CRC 45C9172A
Copy CRC 45C9172A
Accurately ripped (confidence 1) [61536F66] (AR v1)
Copy OK

Track 17

Filename D:\My Documents\Dropbox\My Music\What.cd project\Trummy Young - 1998 - 1944-1946 [FLAC]\17 - Blues Triste.wav

Peak level 56.2 %
Extraction speed 12.0 X
Track quality 100.0 %
Test CRC 0F631C36
Copy CRC 0F631C36
Accurately ripped (confidence 1) [DB556050] (AR v1)
Copy OK

Track 18

Filename D:\My Documents\Dropbox\My Music\What.cd project\Trummy Young - 1998 - 1944-1946 [FLAC]\18 - Johnson Rock.wav

Peak level 87.2 %
Extraction speed 12.1 X
Track quality 100.0 %
Test CRC 8309C3AF
Copy CRC 8309C3AF
Accurately ripped (confidence 1) [14E11D7A] (AR v1)
Copy OK

Track 19

Filename D:\My Documents\Dropbox\My Music\What.cd project\Trummy Young - 1998 - 1944-1946 [FLAC]\19 - Lucky Draw.wav

Peak level 59.1 %
Extraction speed 11.8 X
Track quality 100.0 %
Test CRC D4AE201B
Copy CRC D4AE201B
Accurately ripped (confidence 1) [DD884306] (AR v1)
Copy OK

All tracks accurately ripped

No errors occurred

End of status report

==== Log checksum 936E0F5AEF5A4567820D8CD1089CAB6A0220B951A21B67A22A3D6EAEC34C8CC7 ====
REM GENRE Jazz 
REM DATE 1998
REM DISCID 38107813
REM COMMENT "ExactAudioCopy v1.0b3"
PERFORMER "Trummy Young"
TITLE "1944 - 1946"
FILE "01 - Hollywood.wav" WAVE
TRACK 01 AUDIO
TITLE "Hollywood"
PERFORMER "Trummy Young"
PREGAP 00:00:32
INDEX 01 00:00:00
FILE "02 - Talk Of The town.wav" WAVE
TRACK 02 AUDIO
TITLE "Talk Of The town"
PERFORMER "Trummy Young"
INDEX 01 00:00:00
FILE "03 - Good'n Groovy.wav" WAVE
TRACK 03 AUDIO
TITLE "Good'n Groovy"
PERFORMER "Trummy Young"
INDEX 01 00:00:00
FILE "04 - Rattle And Roll.wav" WAVE
TRACK 04 AUDIO
TITLE "Rattle And Roll"
PERFORMER "Trummy Young"
INDEX 01 00:00:00
FILE "05 - I'm Living For Today.wav" WAVE
TRACK 05 AUDIO
TITLE "I'm Living For Today"
PERFORMER "Trummy Young"
INDEX 01 00:00:00
FILE "06 - Behind The Eight Bar.wav" WAVE
TRACK 06 AUDIO
TITLE "Behind The Eight Bar"
PERFORMER "Trummy Young"
INDEX 01 00:00:00
FILE "07 - Four Or Tive Times.wav" WAVE
TRACK 07 AUDIO
TITLE "Four Or Tive Times"
PERFORMER "Trummy Young"
INDEX 01 00:00:00
FILE "08 - I Want A Little Girl.wav" WAVE
TRACK 08 AUDIO
TITLE "I Want A Little Girl"
PERFORMER "Trummy Young"
INDEX 01 00:00:00
FILE "09 - Two Sleepy People.wav" WAVE
TRACK 09 AUDIO
TITLE "Two Sleepy People"
PERFORMER "Trummy Young"
INDEX 01 00:00:00
FILE "10 - Tea For Two.wav" WAVE
TRACK 10 AUDIO
TITLE "Tea For Two"
PERFORMER "Trummy Young"
INDEX 01 00:00:00
FILE "11 - Thanks For The Memory.wav" WAVE
TRACK 11 AUDIO
TITLE "Thanks For The Memory"
PERFORMER "Trummy Young"
INDEX 01 00:00:00
FILE "12 - Don't Be A Baby, Baby.wav" WAVE
TRACK 12 AUDIO
TITLE "Don't Be A Baby, Baby"
PERFORMER "Trummy Young"
INDEX 01 00:00:00
FILE "13 - Lazy Lullaby.wav" WAVE
TRACK 13 AUDIO
TITLE "Lazy Lullaby"
PERFORMER "Trummy Young"
INDEX 01 00:00:00
FILE "14 - Try, Try Again.wav" WAVE
TRACK 14 AUDIO
TITLE "Try, Try Again"
PERFORMER "Trummy Young"
INDEX 01 00:00:00
FILE "15 - Tidal Wave.wav" WAVE
TRACK 15 AUDIO
TITLE "Tidal Wave"
PERFORMER "Trummy Young"
INDEX 01 00:00:00
FILE "16 - Fruitie Cutie.wav" WAVE
TRACK 16 AUDIO
TITLE "Fruitie Cutie"
PERFORMER "Trummy Young"
INDEX 01 00:00:00
FILE "17 - Blues Triste.wav" WAVE
TRACK 17 AUDIO
TITLE "Blues Triste"
PERFORMER "Trummy Young"
INDEX 01 00:00:00
FILE "18 - Johnson Rock.wav" WAVE
TRACK 18 AUDIO
TITLE "Johnson Rock"
PERFORMER "Trummy Young"
INDEX 01 00:00:00
FILE "19 - Lucky Draw.wav" WAVE
TRACK 19 AUDIO
TITLE "Lucky Draw"
PERFORMER "Trummy Young"
INDEX 01 00:00:00

Этот торрент недоступен для скачивания без регистрации, однако доступен по публичной magnet-ссылке (источники с публичных трекеров). Перед использованием ссылки прочтите, пожалуйста Пользовательское соглашение, а также как можно дольше оставайтесь на раздаче! Для того, чтобы скачать сам торрент-файл (который видит больше источников), а также для того, чтобы поблагодарить релизера, вам необходимо зарегистрироваться. Если регистрироваться лень - вы можете также попробовать скачать релиз по нашим партнерским ссылкам ниже. Кроме того, зарегистрированным пользователям не показывается всплывающая реклама при скачивании.

[underver.se].t235939.torrent
Трекер: Зарегистрирован   [ 19.02.2022 12:40 ]  
Статус: проверено (by Бишеп at 19.02.2022 12:40)
Поблагодарили: пока никто не поблагодарил...
Тип торрента: публичный - доступные источники с открытых трекеров: 
Размер: 145 MB (занимает 0.03 DVDR, для записи нужно 1 болванка DVDR/RW)
 
 

Яндекс.Метрика powered by Sphinx


В Н И М А Н И Е
Сайт не распространяет и не хранит электронные версии произведений, а лишь бесплатно и без коммерческой выгоды (не требуя взамен платы,
SMS и т.д.) предоставляет доступ к создаваемому пользователями каталогу ссылок на торрент-файлы, которые содержат только списки хеш-сумм.
Убедительная просьба с жалобами обращаться напрямую к пользователю, разместившему торрент файл.

Вверх