Loading...
Error

(Progressive Rock, Krautrock) Electric Food - Electric Food - Flash (2004) [FLAC (Tracks+.Cue), Lossless]

Статистика раздачи
Размер:  618 MB   |    Зарегистрирован:  7 месяцев   |    Скачан:  2 раза

Полного источника не было: 1 месяц 28 дней

Сидов:  0  |  0 KB/s  ]   Личеров:  0  |  0 KB/s  ]

* - сиды/пиры с внешних источников

   
 
Автор Сообщение

Бишеп Пол:Муж

19-Фев-2022 14:30

Electric Food - Electric Food ⁄ Flash

Жанр: Progressive Rock, Krautrock
Год выпуска: 2004
Носитель: CD
Производитель диска: Mason Records - MR56424
Аудиокодек: FLAC
Тип рипа: Tracks+.CUE
Битрейт аудио: lossless
Продолжительность: 01:19:58



Electric Food
01. Whole Lotta Love (03:26)
02. The Reason Why (03:19)
03. Hey Down (04:31)
04. Tavern (04:05)
05. Going to See My Mother (02:00)
06. House of the Rising Sun (03:55)
07. Let's Work Together (02:42)
08. Sule Skerry (04:41)
09. Nosferatu (04:53)
10. Twelve Months and a Day (02:39)
11. Icerose (02:54)
12. I'll Try (03:13)
Flash
13. All Right Now (03:47)
14. Sam's Walk (02:04)
15. Love Me (03:33)
16. People (02:57)
17. Working on the Railroad (03:26)
18. Randall (03:13)
19. Love Like a Man (03:28)
20. Sam's Talk (01:41)
21. I Can See Somebody (05:52)
22. Andy's Breakdown (02:26)
23. Give Me Love (02:14)
24. Plantation (02:59)

Exact Audio Copy V1.6 from 23. October 2020 

EAC extraction logfile from 9. January 2022, 14:39

Electric Food / Electric Food / Flash

Used drive : ASUS DRW-24D5MT Adapter: 1 ID: 1

Read mode : Secure
Utilize accurate stream : Yes
Defeat audio cache : Yes
Make use of C2 pointers : No

Read offset correction : 6
Overread into Lead-In and Lead-Out : No
Fill up missing offset samples with silence : Yes
Delete leading and trailing silent blocks : No
Null samples used in CRC calculations : Yes
Used interface : Installed external ASPI interface
Gap handling : Appended to previous track

Used output format : User Defined Encoder
Selected bitrate : 128 kBit/s
Quality : High
Add ID3 tag : No
Command line compressor : C:\Program Files (x86)\Exact Audio Copy\Flac\flac.exe
Additional command line options : -8 -V -T "TITLE=%title%" -T "ARTIST=%artist%" -T "ALBUMARTIST=%albumartist%" -T "ALBUM=%albumtitle%" -T "DATE=%year%" -T "TRACKNUMBER=%tracknr%" -T "TRACKTOTAL=%numtracks%" -T "GENRE=%genre%" -T "COMMENT=%comment%" -T "PERFORMER=%albuminterpret%" -T "COMPOSER=%composer%" %source% -o %dest%

TOC of the extracted CD

Track | Start | Length | Start sector | End sector
---------------------------------------------------------
1 | 0:00.00 | 3:25.53 | 0 | 15427
2 | 3:25.53 | 3:19.18 | 15428 | 30370
3 | 6:44.71 | 4:31.14 | 30371 | 50709
4 | 11:16.10 | 4:04.61 | 50710 | 69070
5 | 15:20.71 | 1:59.53 | 69071 | 78048
6 | 17:20.49 | 3:54.58 | 78049 | 95656
7 | 21:15.32 | 2:42.25 | 95657 | 107831
8 | 23:57.57 | 4:40.50 | 107832 | 128881
9 | 28:38.32 | 4:53.36 | 128882 | 150892
10 | 33:31.68 | 2:38.56 | 150893 | 162798
11 | 36:10.49 | 2:54.12 | 162799 | 175860
12 | 39:04.61 | 3:13.23 | 175861 | 190358
13 | 42:18.09 | 3:47.10 | 190359 | 207393
14 | 46:05.19 | 2:03.70 | 207394 | 216688
15 | 48:09.14 | 3:32.40 | 216689 | 232628
16 | 51:41.54 | 2:56.39 | 232629 | 245867
17 | 54:38.18 | 3:26.16 | 245868 | 261333
18 | 58:04.34 | 3:13.06 | 261334 | 275814
19 | 61:17.40 | 3:27.63 | 275815 | 291402
20 | 64:45.28 | 1:40.41 | 291403 | 298943
21 | 66:25.69 | 5:52.18 | 298944 | 325361
22 | 72:18.12 | 2:26.28 | 325362 | 336339
23 | 74:44.40 | 2:13.45 | 336340 | 346359
24 | 76:58.10 | 2:59.31 | 346360 | 359815

Track 1

Filename B:\breaker\Electric Food\01 - Whole Lotta Love.wav

Pre-gap length 0:00:02.00

Peak level 89.0 %
Extraction speed 1.1 X
Track quality 100.0 %
Test CRC 689F634E
Copy CRC 689F634E
Accurately ripped (confidence 2) [1214E8A4] (AR v2)
Copy OK

Track 2

Filename B:\breaker\Electric Food\02 - The Reason Why.wav

Peak level 89.0 %
Extraction speed 1.2 X
Track quality 100.0 %
Test CRC 0ECEF9F8
Copy CRC 0ECEF9F8
Accurately ripped (confidence 2) [7BD97F6A] (AR v2)
Copy OK

Track 3

Filename B:\breaker\Electric Food\03 - Hey Down.wav

Peak level 89.1 %
Extraction speed 1.4 X
Track quality 100.0 %
Test CRC EC2CABDA
Copy CRC EC2CABDA
Accurately ripped (confidence 2) [1CEBDA95] (AR v2)
Copy OK

Track 4

Filename B:\breaker\Electric Food\04 - Tavern.wav

Peak level 89.1 %
Extraction speed 1.4 X
Track quality 100.0 %
Test CRC 5ADB74DC
Copy CRC 5ADB74DC
Accurately ripped (confidence 2) [3AF68432] (AR v2)
Copy OK

Track 5

Filename B:\breaker\Electric Food\05 - Going to See My Mother.wav

Peak level 89.0 %
Extraction speed 1.3 X
Track quality 100.0 %
Test CRC 797A4EE7
Copy CRC 797A4EE7
Accurately ripped (confidence 2) [060D49BD] (AR v2)
Copy OK

Track 6

Filename B:\breaker\Electric Food\06 - House of the Rising Sun.wav

Peak level 89.1 %
Extraction speed 1.6 X
Track quality 100.0 %
Test CRC E16D47A5
Copy CRC E16D47A5
Accurately ripped (confidence 2) [E55AD5F0] (AR v2)
Copy OK

Track 7

Filename B:\breaker\Electric Food\07 - Let's Work Together.wav

Peak level 89.1 %
Extraction speed 1.3 X
Track quality 99.9 %
Test CRC C5E8E7B4
Copy CRC C5E8E7B4
Accurately ripped (confidence 2) [D92AE071] (AR v2)
Copy OK

Track 8

Filename B:\breaker\Electric Food\08 - Sule Skerry.wav

Peak level 89.1 %
Extraction speed 1.7 X
Track quality 100.0 %
Test CRC 92CCE048
Copy CRC 92CCE048
Accurately ripped (confidence 2) [8E28996B] (AR v2)
Copy OK

Track 9

Filename B:\breaker\Electric Food\09 - Nosferatu.wav

Peak level 89.1 %
Extraction speed 1.7 X
Track quality 99.9 %
Test CRC AFDC3776
Copy CRC AFDC3776
Accurately ripped (confidence 2) [6AE0E47B] (AR v2)
Copy OK

Track 10

Filename B:\breaker\Electric Food\10 - Twelve Months and a Day.wav

Peak level 89.1 %
Extraction speed 1.8 X
Track quality 100.0 %
Test CRC 4BD015B8
Copy CRC 4BD015B8
Accurately ripped (confidence 2) [1903CBF0] (AR v2)
Copy OK

Track 11

Filename B:\breaker\Electric Food\11 - Icerose.wav

Peak level 89.1 %
Extraction speed 1.8 X
Track quality 100.0 %
Test CRC 2686D831
Copy CRC 2686D831
Accurately ripped (confidence 2) [631E5E3B] (AR v2)
Copy OK

Track 12

Filename B:\breaker\Electric Food\12 - I'll Try.wav

Peak level 89.1 %
Extraction speed 1.9 X
Track quality 100.0 %
Test CRC B7072DFC
Copy CRC B7072DFC
Accurately ripped (confidence 2) [407AA2F2] (AR v2)
Copy OK

Track 13

Filename B:\breaker\Electric Food\13 - All Right Now.wav

Peak level 89.1 %
Extraction speed 2.0 X
Track quality 100.0 %
Test CRC E5A422F9
Copy CRC E5A422F9
Accurately ripped (confidence 2) [9C595B10] (AR v2)
Copy OK

Track 14

Filename B:\breaker\Electric Food\14 - Sam's Walk.wav

Peak level 89.1 %
Extraction speed 1.9 X
Track quality 100.0 %
Test CRC 9B4F2080
Copy CRC 9B4F2080
Accurately ripped (confidence 2) [67B7EC51] (AR v2)
Copy OK

Track 15

Filename B:\breaker\Electric Food\15 - Love Me.wav

Peak level 89.1 %
Extraction speed 2.1 X
Track quality 100.0 %
Test CRC 4AE3D482
Copy CRC 4AE3D482
Accurately ripped (confidence 2) [92D6D192] (AR v2)
Copy OK

Track 16

Filename B:\breaker\Electric Food\16 - People.wav

Peak level 89.1 %
Extraction speed 2.1 X
Track quality 100.0 %
Test CRC 9DB6088B
Copy CRC 9DB6088B
Accurately ripped (confidence 2) [F43BC514] (AR v2)
Copy OK

Track 17

Filename B:\breaker\Electric Food\17 - Working on the Railroad.wav

Peak level 89.1 %
Extraction speed 2.2 X
Track quality 100.0 %
Test CRC FED98135
Copy CRC FED98135
Accurately ripped (confidence 2) [215985F5] (AR v2)
Copy OK

Track 18

Filename B:\breaker\Electric Food\18 - Randall.wav

Peak level 89.1 %
Extraction speed 2.2 X
Track quality 100.0 %
Test CRC 0886217D
Copy CRC 0886217D
Accurately ripped (confidence 2) [C196A734] (AR v2)
Copy OK

Track 19

Filename B:\breaker\Electric Food\19 - Love Like a Man.wav

Peak level 89.1 %
Extraction speed 2.0 X
Track quality 99.9 %
Test CRC B930A2DB
Copy CRC B930A2DB
Accurately ripped (confidence 2) [1664F25F] (AR v2)
Copy OK

Track 20

Filename B:\breaker\Electric Food\20 - Sam's Talk.wav

Peak level 89.1 %
Extraction speed 1.6 X
Track quality 99.8 %
Test CRC 24A926A6
Copy CRC 24A926A6
Accurately ripped (confidence 2) [ADD477F8] (AR v2)
Copy OK

Track 21

Filename B:\breaker\Electric Food\21 - I Can See Somebody.wav

Peak level 89.1 %
Extraction speed 2.3 X
Track quality 99.9 %
Test CRC C967B42E
Copy CRC C967B42E
Accurately ripped (confidence 2) [92DA01FB] (AR v2)
Copy OK

Track 22

Filename B:\breaker\Electric Food\22 - Andy's Breakdown.wav

Peak level 89.1 %
Extraction speed 2.3 X
Track quality 100.0 %
Test CRC EEB6AB49
Copy CRC EEB6AB49
Accurately ripped (confidence 2) [0CA9394E] (AR v2)
Copy OK

Track 23

Filename B:\breaker\Electric Food\23 - Give Me Love.wav

Peak level 89.1 %
Extraction speed 2.2 X
Track quality 100.0 %
Test CRC 2489A018
Copy CRC 2489A018
Accurately ripped (confidence 2) [FAFEA85C] (AR v2)
Copy OK

Track 24

Filename B:\breaker\Electric Food\24 - Plantation.wav

Peak level 89.1 %
Extraction speed 2.4 X
Track quality 100.0 %
Test CRC 0C9E1F04
Copy CRC 0C9E1F04
Accurately ripped (confidence 2) [C50BB787] (AR v2)
Copy OK

All tracks accurately ripped

No errors occurred

End of status report

---- CUETools DB Plugin V2.1.6

[CTDB TOCID: Yz7DG.23zcQY2zfhDp02ZsaSrMc-] found
Submit result: already submitted
Track | CTDB Status
1 | (13/13) Accurately ripped
2 | (13/13) Accurately ripped
3 | (13/13) Accurately ripped
4 | (13/13) Accurately ripped
5 | (13/13) Accurately ripped
6 | (13/13) Accurately ripped
7 | (13/13) Accurately ripped
8 | (13/13) Accurately ripped
9 | (13/13) Accurately ripped
10 | (13/13) Accurately ripped
11 | (13/13) Accurately ripped
12 | (13/13) Accurately ripped
13 | (13/13) Accurately ripped
14 | (13/13) Accurately ripped
15 | (13/13) Accurately ripped
16 | (13/13) Accurately ripped
17 | (13/13) Accurately ripped
18 | (13/13) Accurately ripped
19 | (13/13) Accurately ripped
20 | (13/13) Accurately ripped
21 | (13/13) Accurately ripped
22 | (13/13) Accurately ripped
23 | (13/13) Accurately ripped
24 | (13/13) Accurately ripped

==== Log checksum 8EF02AFD01177A18CA2F7BDB8BDF2502AC13BD0947B7FFA2C0F41BE99A0F74BA ====
REM GENRE Krautrock 
REM DATE 2004
REM DISCID 6512BD18
REM COMMENT "ExactAudioCopy v1.6"
PERFORMER "Electric Food"
TITLE "Electric Food / Flash"
REM COMPOSER ""
FILE "01 - Whole Lotta Love.wav" WAVE
TRACK 01 AUDIO
TITLE "Whole Lotta Love"
PERFORMER "Electric Food"
REM COMPOSER ""
INDEX 01 00:00:00
FILE "02 - The Reason Why.wav" WAVE
TRACK 02 AUDIO
TITLE "The Reason Why"
PERFORMER "Electric Food"
REM COMPOSER ""
INDEX 01 00:00:00
FILE "03 - Hey Down.wav" WAVE
TRACK 03 AUDIO
TITLE "Hey Down"
PERFORMER "Electric Food"
REM COMPOSER ""
INDEX 01 00:00:00
FILE "04 - Tavern.wav" WAVE
TRACK 04 AUDIO
TITLE "Tavern"
PERFORMER "Electric Food"
REM COMPOSER ""
INDEX 01 00:00:00
FILE "05 - Going to See My Mother.wav" WAVE
TRACK 05 AUDIO
TITLE "Going to See My Mother"
PERFORMER "Electric Food"
REM COMPOSER ""
INDEX 01 00:00:00
FILE "06 - House of the Rising Sun.wav" WAVE
TRACK 06 AUDIO
TITLE "House of the Rising Sun"
PERFORMER "Electric Food"
REM COMPOSER ""
INDEX 01 00:00:00
FILE "07 - Let's Work Together.wav" WAVE
TRACK 07 AUDIO
TITLE "Let's Work Together"
PERFORMER "Electric Food"
REM COMPOSER ""
INDEX 01 00:00:00
FILE "08 - Sule Skerry.wav" WAVE
TRACK 08 AUDIO
TITLE "Sule Skerry"
PERFORMER "Electric Food"
REM COMPOSER ""
INDEX 01 00:00:00
FILE "09 - Nosferatu.wav" WAVE
TRACK 09 AUDIO
TITLE "Nosferatu"
PERFORMER "Electric Food"
REM COMPOSER ""
INDEX 01 00:00:00
FILE "10 - Twelve Months and a Day.wav" WAVE
TRACK 10 AUDIO
TITLE "Twelve Months and a Day"
PERFORMER "Electric Food"
REM COMPOSER ""
INDEX 01 00:00:00
FILE "11 - Icerose.wav" WAVE
TRACK 11 AUDIO
TITLE "Icerose"
PERFORMER "Electric Food"
REM COMPOSER ""
INDEX 01 00:00:00
FILE "12 - I'll Try.wav" WAVE
TRACK 12 AUDIO
TITLE "I'll Try"
PERFORMER "Electric Food"
REM COMPOSER ""
INDEX 01 00:00:00
FILE "13 - All Right Now.wav" WAVE
TRACK 13 AUDIO
TITLE "All Right Now"
PERFORMER "Electric Food"
REM COMPOSER ""
INDEX 01 00:00:00
FILE "14 - Sam's Walk.wav" WAVE
TRACK 14 AUDIO
TITLE "Sam's Walk"
PERFORMER "Electric Food"
REM COMPOSER ""
INDEX 01 00:00:00
FILE "15 - Love Me.wav" WAVE
TRACK 15 AUDIO
TITLE "Love Me"
PERFORMER "Electric Food"
REM COMPOSER ""
INDEX 01 00:00:00
FILE "16 - People.wav" WAVE
TRACK 16 AUDIO
TITLE "People"
PERFORMER "Electric Food"
REM COMPOSER ""
INDEX 01 00:00:00
FILE "17 - Working on the Railroad.wav" WAVE
TRACK 17 AUDIO
TITLE "Working on the Railroad"
PERFORMER "Electric Food"
REM COMPOSER ""
INDEX 01 00:00:00
FILE "18 - Randall.wav" WAVE
TRACK 18 AUDIO
TITLE "Randall"
PERFORMER "Electric Food"
REM COMPOSER ""
INDEX 01 00:00:00
FILE "19 - Love Like a Man.wav" WAVE
TRACK 19 AUDIO
TITLE "Love Like a Man"
PERFORMER "Electric Food"
REM COMPOSER ""
INDEX 01 00:00:00
FILE "20 - Sam's Talk.wav" WAVE
TRACK 20 AUDIO
TITLE "Sam's Talk"
PERFORMER "Electric Food"
REM COMPOSER ""
INDEX 01 00:00:00
FILE "21 - I Can See Somebody.wav" WAVE
TRACK 21 AUDIO
TITLE "I Can See Somebody"
PERFORMER "Electric Food"
REM COMPOSER ""
INDEX 01 00:00:00
FILE "22 - Andy's Breakdown.wav" WAVE
TRACK 22 AUDIO
TITLE "Andy's Breakdown"
PERFORMER "Electric Food"
REM COMPOSER ""
INDEX 01 00:00:00
FILE "23 - Give Me Love.wav" WAVE
TRACK 23 AUDIO
TITLE "Give Me Love"
PERFORMER "Electric Food"
REM COMPOSER ""
INDEX 01 00:00:00
FILE "24 - Plantation.wav" WAVE
TRACK 24 AUDIO
TITLE "Plantation"
PERFORMER "Electric Food"
REM COMPOSER ""
INDEX 01 00:00:00

Этот торрент недоступен для скачивания без регистрации, однако доступен по публичной magnet-ссылке (источники с публичных трекеров). Перед использованием ссылки прочтите, пожалуйста Пользовательское соглашение, а также как можно дольше оставайтесь на раздаче! Для того, чтобы скачать сам торрент-файл (который видит больше источников), а также для того, чтобы поблагодарить релизера, вам необходимо зарегистрироваться. Если регистрироваться лень - вы можете также попробовать скачать релиз по нашим партнерским ссылкам ниже. Кроме того, зарегистрированным пользователям не показывается всплывающая реклама при скачивании.

[underver.se].t235960.torrent
Трекер: Зарегистрирован   [ 19.02.2022 14:30 ]  
Статус: проверено (by Бишеп at 19.02.2022 14:30)
Поблагодарили: пока никто не поблагодарил...
Тип торрента: публичный - доступные источники с открытых трекеров: 
Размер: 618 MB (занимает 0.14 DVDR, для записи нужно 1 болванка DVDR/RW)
 
 

Яндекс.Метрика powered by Sphinx


В Н И М А Н И Е
Сайт не распространяет и не хранит электронные версии произведений, а лишь бесплатно и без коммерческой выгоды (не требуя взамен платы,
SMS и т.д.) предоставляет доступ к создаваемому пользователями каталогу ссылок на торрент-файлы, которые содержат только списки хеш-сумм.
Убедительная просьба с жалобами обращаться напрямую к пользователю, разместившему торрент файл.

Вверх