Loading...
Error

(Progressive Rock) Jethro Tull - The Zealot Gene (2022) [FLAC (Tracks+.Cue), Lossless]

Статистика раздачи
Размер:  380 MB   |    Зарегистрирован:  7 месяцев   |    Скачан:  10 раз
Сидов:  2  |  0 KB/s  ]   Личеров:  0  |  0 KB/s  ]

* - сиды/пиры с внешних источников

   
 
Автор Сообщение

Бишеп Пол:Муж

19-Фев-2022 15:58

Jethro Tull - The Zealot Gene

Жанр: Progressive Rock
Год выпуска: 2022
Носитель: CD
Производитель диска: Inside Out Music - IOMSECD 609, Sony Music - 19439927162
Аудиокодек: FLAC
Тип рипа: Tracks+.CUE
Битрейт аудио: lossless
Продолжительность: 00:46:42


Треклист:
01. Mrs Tibbets (05:54)
02. Jacob's Tales (02:13)
03. Mine Is the Mountain (05:40)
04. The Zealot Gene (03:55)
05. Shoshana Sleeping (03:41)
06. Sad City Sisters (03:42)
07. Barren Beth, Wild Desert John (03:38)
08. The Betrayal of Joshua Kynde (04:05)
09. Where Did Saturday Go? (03:53)
10. Three Loves, Three (03:30)
11. In Brief Visitation (03:02)
12. The Fisherman of Ephesus (03:41)

Exact Audio Copy V1.6 from 23. October 2020 

EAC extraction logfile from 27. January 2022, 17:26

Jethro Tull / The Zealot Gene

Used drive : PLEXTOR PX-891SAF PLUS Adapter: 1 ID: 0

Read mode : Secure
Utilize accurate stream : Yes
Defeat audio cache : Yes
Make use of C2 pointers : No

Read offset correction : 6
Overread into Lead-In and Lead-Out : No
Fill up missing offset samples with silence : Yes
Delete leading and trailing silent blocks : No
Null samples used in CRC calculations : Yes
Used interface : Native Win32 interface for Win NT & 2000
Gap handling : Appended to previous track

Used output format : User Defined Encoder
Selected bitrate : 1024 kBit/s
Quality : High
Add ID3 tag : No
Command line compressor : C:\Program Files (x86)\Exact Audio Copy\Flac\flac.exe
Additional command line options : -0 -V -T "ARTIST=%artist%" -T "TITLE=%title%" -T "ALBUM=%albumtitle%" -T "DATE=%year%" -T "TRACKNUMBER=%tracknr%" -T "TOTALTRACKS=%numtracks%" -T "GENRE=%genre%" -T "COMMENT=Naftamusic Release!" %source%

TOC of the extracted CD

Track | Start | Length | Start sector | End sector
---------------------------------------------------------
1 | 0:00.00 | 5:53.59 | 0 | 26533
2 | 5:53.59 | 2:12.71 | 26534 | 36504
3 | 8:06.55 | 5:40.11 | 36505 | 62015
4 | 13:46.66 | 3:54.57 | 62016 | 79622
5 | 17:41.48 | 3:40.59 | 79623 | 96181
6 | 21:22.32 | 3:41.72 | 96182 | 112828
7 | 25:04.29 | 3:38.07 | 112829 | 129185
8 | 28:42.36 | 4:05.28 | 129186 | 147588
9 | 32:47.64 | 3:52.49 | 147589 | 165037
10 | 36:40.38 | 3:29.67 | 165038 | 180779
11 | 40:10.30 | 3:01.61 | 180780 | 194415
12 | 43:12.16 | 3:40.64 | 194416 | 210979

Track 1

Filename E:\Nafta Releases\Jethro Tull - The Zealot Gene (2022)[FLAC]-Naftamusic\01 - Mrs Tibbets.wav

Pre-gap length 0:00:02.00

Peak level 97.6 %
Extraction speed 2.0 X
Track quality 100.0 %
Test CRC DA6C2A66
Copy CRC DA6C2A66
Track not present in AccurateRip database
Copy OK

Track 2

Filename E:\Nafta Releases\Jethro Tull - The Zealot Gene (2022)[FLAC]-Naftamusic\02 - Jacob's Tales.wav

Pre-gap length 0:00:01.55

Peak level 97.6 %
Extraction speed 1.9 X
Track quality 100.0 %
Test CRC 4D654B88
Copy CRC 4D654B88
Track not present in AccurateRip database
Copy OK

Track 3

Filename E:\Nafta Releases\Jethro Tull - The Zealot Gene (2022)[FLAC]-Naftamusic\03 - Mine Is The Mountain.wav

Pre-gap length 0:00:01.12

Peak level 97.6 %
Extraction speed 2.4 X
Track quality 100.0 %
Test CRC 7AAE161C
Copy CRC 7AAE161C
Track not present in AccurateRip database
Copy OK

Track 4

Filename E:\Nafta Releases\Jethro Tull - The Zealot Gene (2022)[FLAC]-Naftamusic\04 - The Zealot Gene.wav

Pre-gap length 0:00:00.57

Peak level 97.6 %
Extraction speed 2.5 X
Track quality 100.0 %
Test CRC A6BEFAC5
Copy CRC A6BEFAC5
Track not present in AccurateRip database
Copy OK

Track 5

Filename E:\Nafta Releases\Jethro Tull - The Zealot Gene (2022)[FLAC]-Naftamusic\05 - Shoshana Sleeping.wav

Pre-gap length 0:00:00.53

Peak level 97.6 %
Extraction speed 1.9 X
Track quality 99.9 %
Test CRC 7FE1A2C6
Copy CRC 7FE1A2C6
Track not present in AccurateRip database
Copy OK

Track 6

Filename E:\Nafta Releases\Jethro Tull - The Zealot Gene (2022)[FLAC]-Naftamusic\06 - Sad City Sisters.wav

Pre-gap length 0:00:00.19

Peak level 97.6 %
Extraction speed 2.8 X
Track quality 100.0 %
Test CRC 7438E474
Copy CRC 7438E474
Track not present in AccurateRip database
Copy OK

Track 7

Filename E:\Nafta Releases\Jethro Tull - The Zealot Gene (2022)[FLAC]-Naftamusic\07 - Barren Beth, Wild Desert John.wav

Pre-gap length 0:00:01.57

Peak level 97.6 %
Extraction speed 2.1 X
Track quality 99.9 %
Test CRC DDDF36CB
Copy CRC DDDF36CB
Track not present in AccurateRip database
Copy OK

Track 8

Filename E:\Nafta Releases\Jethro Tull - The Zealot Gene (2022)[FLAC]-Naftamusic\08 - The Betrayal Of Joshua Kynde.wav

Pre-gap length 0:00:02.33

Peak level 97.6 %
Extraction speed 2.3 X
Track quality 99.9 %
Test CRC B60D81CD
Copy CRC B60D81CD
Track not present in AccurateRip database
Copy OK

Track 9

Filename E:\Nafta Releases\Jethro Tull - The Zealot Gene (2022)[FLAC]-Naftamusic\09 - Where Did Saturday Go.wav

Pre-gap length 0:00:01.27

Peak level 97.5 %
Extraction speed 3.2 X
Track quality 100.0 %
Test CRC B20D141B
Copy CRC B20D141B
Track not present in AccurateRip database
Copy OK

Track 10

Filename E:\Nafta Releases\Jethro Tull - The Zealot Gene (2022)[FLAC]-Naftamusic\10 - Three Loves, Three.wav

Pre-gap length 0:00:00.12

Peak level 97.6 %
Extraction speed 3.2 X
Track quality 100.0 %
Test CRC AAB3D1A3
Copy CRC AAB3D1A3
Track not present in AccurateRip database
Copy OK

Track 11

Filename E:\Nafta Releases\Jethro Tull - The Zealot Gene (2022)[FLAC]-Naftamusic\11 - In Brief Visitation.wav

Peak level 97.6 %
Extraction speed 3.2 X
Track quality 100.0 %
Test CRC 485C95D4
Copy CRC 485C95D4
Track not present in AccurateRip database
Copy OK

Track 12

Filename E:\Nafta Releases\Jethro Tull - The Zealot Gene (2022)[FLAC]-Naftamusic\12 - The Fisherman Of Ephesus.wav

Pre-gap length 0:00:00.67

Peak level 97.6 %
Extraction speed 3.4 X
Track quality 100.0 %
Test CRC 0835B606
Copy CRC 0835B606
Track not present in AccurateRip database
Copy OK

None of the tracks are present in the AccurateRip database

No errors occurred

End of status report

==== Log checksum 32817C739D91F8D4D627389888DAE5A3B16B4FB6AA19F46E0DD78F59FB6EA108 ====
REM GENRE Rock 
REM DATE 2022
REM DISCID A40AFD0C
REM COMMENT "ExactAudioCopy v1.6"
PERFORMER "Jethro Tull"
TITLE "The Zealot Gene"
FILE "01 - Mrs Tibbets.wav" WAVE
TRACK 01 AUDIO
TITLE "Mrs Tibbets"
PERFORMER "Jethro Tull"
INDEX 01 00:00:00
TRACK 02 AUDIO
TITLE "Jacob's Tales"
PERFORMER "Jethro Tull"
INDEX 00 05:52:04
FILE "02 - Jacob's Tales.wav" WAVE
INDEX 01 00:00:00
TRACK 03 AUDIO
TITLE "Mine Is the Mountain"
PERFORMER "Jethro Tull"
INDEX 00 02:11:59
FILE "03 - Mine Is the Mountain.wav" WAVE
INDEX 01 00:00:00
TRACK 04 AUDIO
TITLE "The Zealot Gene"
PERFORMER "Jethro Tull"
INDEX 00 05:39:29
FILE "04 - The Zealot Gene.wav" WAVE
INDEX 01 00:00:00
TRACK 05 AUDIO
TITLE "Shoshana Sleeping"
PERFORMER "Jethro Tull"
INDEX 00 03:54:04
FILE "05 - Shoshana Sleeping.wav" WAVE
INDEX 01 00:00:00
TRACK 06 AUDIO
TITLE "Sad City Sisters"
PERFORMER "Jethro Tull"
INDEX 00 03:40:40
FILE "06 - Sad City Sisters.wav" WAVE
INDEX 01 00:00:00
TRACK 07 AUDIO
TITLE "Barren Beth, Wild Desert John"
PERFORMER "Jethro Tull"
INDEX 00 03:40:15
FILE "07 - Barren Beth, Wild Desert John.wav" WAVE
INDEX 01 00:00:00
TRACK 08 AUDIO
TITLE "The Betrayal of Joshua Kynde"
PERFORMER "Jethro Tull"
INDEX 00 03:35:49
FILE "08 - The Betrayal of Joshua Kynde.wav" WAVE
INDEX 01 00:00:00
TRACK 09 AUDIO
TITLE "Where Did Saturday Go?"
PERFORMER "Jethro Tull"
INDEX 00 04:04:01
FILE "09 - Where Did Saturday Go.wav" WAVE
INDEX 01 00:00:00
TRACK 10 AUDIO
TITLE "Three Loves, Three"
PERFORMER "Jethro Tull"
INDEX 00 03:52:37
FILE "10 - Three Loves, Three.wav" WAVE
INDEX 01 00:00:00
FILE "11 - In Brief Visitation.wav" WAVE
TRACK 11 AUDIO
TITLE "In Brief Visitation"
PERFORMER "Jethro Tull"
INDEX 01 00:00:00
TRACK 12 AUDIO
TITLE "The Fisherman of Ephesus"
PERFORMER "Jethro Tull"
INDEX 00 03:00:69
FILE "12 - The Fisherman of Ephesus.wav" WAVE
INDEX 01 00:00:00

Этот торрент недоступен для скачивания без регистрации, однако доступен по публичной magnet-ссылке (источники с публичных трекеров). Перед использованием ссылки прочтите, пожалуйста Пользовательское соглашение, а также как можно дольше оставайтесь на раздаче! Для того, чтобы скачать сам торрент-файл (который видит больше источников), а также для того, чтобы поблагодарить релизера, вам необходимо зарегистрироваться. Если регистрироваться лень - вы можете также попробовать скачать релиз по нашим партнерским ссылкам ниже. Кроме того, зарегистрированным пользователям не показывается всплывающая реклама при скачивании.

[underver.se].t235985.torrent
Трекер: Зарегистрирован   [ 19.02.2022 15:58 ]  
Статус: проверено (by Бишеп at 19.02.2022 15:58)
Поблагодарили: 1 человек
Тип торрента: публичный - доступные источники с открытых трекеров: 
Размер: 380 MB (занимает 0.08 DVDR, для записи нужно 1 болванка DVDR/RW)
 
 

Яндекс.Метрика powered by Sphinx


В Н И М А Н И Е
Сайт не распространяет и не хранит электронные версии произведений, а лишь бесплатно и без коммерческой выгоды (не требуя взамен платы,
SMS и т.д.) предоставляет доступ к создаваемому пользователями каталогу ссылок на торрент-файлы, которые содержат только списки хеш-сумм.
Убедительная просьба с жалобами обращаться напрямую к пользователю, разместившему торрент файл.

Вверх