Loading...
Error

(Ragtime, Dixieland) Henry Butler & Steven Bernstein - Viper's Drag (2014) [FLAC (Tracks+.Cue), Lossless]

Статистика раздачи
Размер:  328 MB   |    Зарегистрирован:  7 месяцев   |    Скачан:  4 раза

Полного источника не было: 3 месяца 10 дней

Сидов:  0  |  0 KB/s  ]   Личеров:  0  |  0 KB/s  ]

* - сиды/пиры с внешних источников

   
 
Автор Сообщение

Бишеп Пол:Муж

20-Фев-2022 16:15

Henry Butler & Steven Bernstein - Viper's Drag

Жанр: Ragtime, Dixieland
Год выпуска: 2014
Носитель: CD
Производитель диска: Impulse! - 378 128-3 / 0602537812837
Аудиокодек: FLAC
Тип рипа: Tracks+.CUE
Битрейт аудио: lossless
Продолжительность: 00:51:44


Треклист:
01. Viper's Drag (06:47)
02. Dixie Walker (06:21)
03. Buddy Bolden's Blues (05:14)
04. Henry's Boogie (05:36)
05. Gimmie A Pigsfoot (05:53)
06. Wolverine Blues (05:41)
07. King Porter Stomp (06:21)
08. I Left My Baby (05:54)
09. Some Iko (03:58)

Exact Audio Copy V1.0 beta 3 from 29. August 2011 

EAC extraction logfile from 15. September 2014, 12:07

Henry Butler & Steven Bernstein / Viper's Drag

Used drive : ATAPI iHBS112 2 Adapter: 2 ID: 0

Read mode : Secure
Utilize accurate stream : Yes
Defeat audio cache : Yes
Make use of C2 pointers : No

Read offset correction : 6
Overread into Lead-In and Lead-Out : No
Fill up missing offset samples with silence : Yes
Delete leading and trailing silent blocks : No
Null samples used in CRC calculations : Yes
Used interface : Native Win32 interface for Win NT & 2000
Gap handling : Appended to previous track

Used output format : User Defined Encoder
Selected bitrate : 1024 kBit/s
Quality : High
Add ID3 tag : No
Command line compressor : C:\Program Files\FLAC Frontend\tools\flac.exe
Additional command line options : -8 -V -T "ARTIST=%artist%" -T "TITLE=%title%" -T "ALBUM=%albumtitle%" -T "DATE=%year%" -T "TRACKNUMBER=%tracknr%" -T "TOTALTRACKS=%numtracks%" -T "GENRE=%genre%" -T "ALBUMARTIST=%albumartist%" -T "ALBUM ARTIST=%albumartist%" -T "DISCNUMBER=%cdnumber%" -T "TOTALDISCS=%totalcds%" -T "COMMENT=EAC Secure Mode, Test & Copy, AccurateRip, FLAC -8" %source%

TOC of the extracted CD

Track | Start | Length | Start sector | End sector
---------------------------------------------------------
1 | 0:00.00 | 6:46.45 | 0 | 30494
2 | 6:46.45 | 6:20.48 | 30495 | 59042
3 | 13:07.18 | 5:14.00 | 59043 | 82592
4 | 18:21.18 | 5:35.67 | 82593 | 107784
5 | 23:57.10 | 5:53.00 | 107785 | 134259
6 | 29:50.10 | 5:41.15 | 134260 | 159849
7 | 35:31.25 | 6:20.53 | 159850 | 188402
8 | 41:52.03 | 5:53.70 | 188403 | 214947
9 | 47:45.73 | 3:58.12 | 214948 | 232809

Track 1

Filename P:\DL\Henry Butler & Steven Bernstein - Viper's Drag (2014) [FLAC]\01 - Viper's Drag.wav

Pre-gap length 0:00:02.00

Peak level 96.9 %
Extraction speed 2.2 X
Track quality 100.0 %
Test CRC 00C2C8DC
Copy CRC 00C2C8DC
Accurately ripped (confidence 2) [39261220] (AR v2)
Copy OK

Track 2

Filename P:\DL\Henry Butler & Steven Bernstein - Viper's Drag (2014) [FLAC]\02 - Dixie Walker.wav

Peak level 96.8 %
Extraction speed 2.2 X
Track quality 100.0 %
Test CRC BF201F58
Copy CRC BF201F58
Accurately ripped (confidence 2) [78FDDD6E] (AR v2)
Copy OK

Track 3

Filename P:\DL\Henry Butler & Steven Bernstein - Viper's Drag (2014) [FLAC]\03 - Buddy Bolden's Blues.wav

Peak level 96.6 %
Extraction speed 2.7 X
Track quality 100.0 %
Test CRC 157F9A49
Copy CRC 157F9A49
Accurately ripped (confidence 2) [FA85AC22] (AR v2)
Copy OK

Track 4

Filename P:\DL\Henry Butler & Steven Bernstein - Viper's Drag (2014) [FLAC]\04 - Henry's Boogie.wav

Peak level 96.6 %
Extraction speed 2.9 X
Track quality 100.0 %
Test CRC 3B560AC1
Copy CRC 3B560AC1
Accurately ripped (confidence 2) [D4CF693B] (AR v2)
Copy OK

Track 5

Filename P:\DL\Henry Butler & Steven Bernstein - Viper's Drag (2014) [FLAC]\05 - Gimmie a Pigsfoot.wav

Peak level 97.0 %
Extraction speed 3.2 X
Track quality 100.0 %
Test CRC 6CB94A81
Copy CRC 6CB94A81
Accurately ripped (confidence 2) [0D35E6F1] (AR v2)
Copy OK

Track 6

Filename P:\DL\Henry Butler & Steven Bernstein - Viper's Drag (2014) [FLAC]\06 - Wolverine Blues.wav

Peak level 96.6 %
Extraction speed 3.4 X
Track quality 100.0 %
Test CRC 9E77B606
Copy CRC 9E77B606
Accurately ripped (confidence 2) [59818FB7] (AR v2)
Copy OK

Track 7

Filename P:\DL\Henry Butler & Steven Bernstein - Viper's Drag (2014) [FLAC]\07 - King Porter Stomp.wav

Peak level 96.7 %
Extraction speed 3.6 X
Track quality 100.0 %
Test CRC D6108C22
Copy CRC D6108C22
Accurately ripped (confidence 2) [E33FAD0C] (AR v2)
Copy OK

Track 8

Filename P:\DL\Henry Butler & Steven Bernstein - Viper's Drag (2014) [FLAC]\08 - I Left My Baby.wav

Peak level 96.6 %
Extraction speed 3.8 X
Track quality 100.0 %
Test CRC 78C64712
Copy CRC 78C64712
Accurately ripped (confidence 2) [B84ADB07] (AR v2)
Copy OK

Track 9

Filename P:\DL\Henry Butler & Steven Bernstein - Viper's Drag (2014) [FLAC]\09 - Some Iko.wav

Peak level 96.7 %
Extraction speed 3.7 X
Track quality 100.0 %
Test CRC 56E9BE4D
Copy CRC 56E9BE4D
Accurately ripped (confidence 2) [F8F4BBED] (AR v2)
Copy OK

All tracks accurately ripped

No errors occurred

End of status report

---- CUETools DB Plugin V2.1.3

[CTDB TOCID: lJ3wWjIHfxJDNnw1zNvp_hrjChY-] found, Submit result: lJ3wWjIHfxJDNnw1zNvp_hrjChY- has been confirmed
[c1d244b0] (1/1) Accurately ripped

==== Log checksum C7D57002B02D73C86386B049EBF9ECB003A0A30B6A0EE0732E84F3DA21E641B1 ====
REM GENRE Jazz 
REM DATE 2014
REM DISCID 7B0C2009
REM COMMENT "ExactAudioCopy v1.0b3"
PERFORMER "Henry Butler & Steven Bernstein"
TITLE "Viper's Drag"
FILE "01 - Viper's Drag.flac" WAVE
TRACK 01 AUDIO
TITLE "Viper's Drag"
PERFORMER "Henry Butler & Steven Bernstein"
INDEX 01 00:00:00
FILE "02 - Dixie Walker.flac" WAVE
TRACK 02 AUDIO
TITLE "Dixie Walker"
PERFORMER "Henry Butler & Steven Bernstein"
INDEX 01 00:00:00
FILE "03 - Buddy Bolden's Blues.flac" WAVE
TRACK 03 AUDIO
TITLE "Buddy Bolden's Blues"
PERFORMER "Henry Butler & Steven Bernstein"
INDEX 01 00:00:00
FILE "04 - Henry's Boogie.flac" WAVE
TRACK 04 AUDIO
TITLE "Henry's Boogie"
PERFORMER "Henry Butler & Steven Bernstein"
INDEX 01 00:00:00
FILE "05 - Gimmie A Pigsfoot.flac" WAVE
TRACK 05 AUDIO
TITLE "Gimmie A Pigsfoot"
PERFORMER "Henry Butler & Steven Bernstein"
INDEX 01 00:00:00
FILE "06 - Wolverine Blues.flac" WAVE
TRACK 06 AUDIO
TITLE "Wolverine Blues"
PERFORMER "Henry Butler & Steven Bernstein"
INDEX 01 00:00:00
FILE "07 - King Porter Stomp.flac" WAVE
TRACK 07 AUDIO
TITLE "King Porter Stomp"
PERFORMER "Henry Butler & Steven Bernstein"
INDEX 01 00:00:00
FILE "08 - I Left My Baby.flac" WAVE
TRACK 08 AUDIO
TITLE "I Left My Baby"
PERFORMER "Henry Butler & Steven Bernstein"
INDEX 01 00:00:00
FILE "09 - Some Iko.flac" WAVE
TRACK 09 AUDIO
TITLE "Some Iko"
PERFORMER "Henry Butler & Steven Bernstein"
INDEX 01 00:00:00

Этот торрент недоступен для скачивания без регистрации, однако доступен по публичной magnet-ссылке (источники с публичных трекеров). Перед использованием ссылки прочтите, пожалуйста Пользовательское соглашение, а также как можно дольше оставайтесь на раздаче! Для того, чтобы скачать сам торрент-файл (который видит больше источников), а также для того, чтобы поблагодарить релизера, вам необходимо зарегистрироваться. Если регистрироваться лень - вы можете также попробовать скачать релиз по нашим партнерским ссылкам ниже. Кроме того, зарегистрированным пользователям не показывается всплывающая реклама при скачивании.

[underver.se].t236073.torrent
Трекер: Зарегистрирован   [ 20.02.2022 16:19 ]  
Статус: проверено (by Бишеп at 20.02.2022 16:19)
Поблагодарили: пока никто не поблагодарил...
Тип торрента: публичный - доступные источники с открытых трекеров: 
Размер: 328 MB (занимает 0.07 DVDR, для записи нужно 1 болванка DVDR/RW)
 
 

Яндекс.Метрика powered by Sphinx


В Н И М А Н И Е
Сайт не распространяет и не хранит электронные версии произведений, а лишь бесплатно и без коммерческой выгоды (не требуя взамен платы,
SMS и т.д.) предоставляет доступ к создаваемому пользователями каталогу ссылок на торрент-файлы, которые содержат только списки хеш-сумм.
Убедительная просьба с жалобами обращаться напрямую к пользователю, разместившему торрент файл.

Вверх