Loading...
Error

Викинги: Вальхалла / Vikings: Valhalla (1 сезон: 1-8 серии из 8) (Стивен Ст. Леджер, Ханна Куинн, Нильс Арден Оплев) [2022 г., история, боевик, драма, мелодрама, WEB-DLRip-AVC] Dub ( VSI Moscow) + Sub (Rus)

Статистика раздачи
Размер:  5.64 GB   |    Зарегистрирован:  7 месяцев   |    Скачан:  67 раз

Полного источника не было: 9 часов

Сидов:  0  |  0 KB/s  ]   Личеров:  0  |  0 KB/s  ]

* - сиды/пиры с внешних источников

   
 
Автор Сообщение

Renesans Пол:Муж

25-Фев-2022 21:43

Викинги: Вальхалла / Vikings: Valhalla (1 сезон: 1-8 серии из 8)


Год выпуска: 2022
Жанр: история, боевик, драма, мелодрама
Режиссер-постановщик: Стивен Ст. Леджер, Ханна Куинн, Нильс Арден Оплев
В фильме снимались: Сэм Корлетт, Лео Сутер, Фрида Густавссон, Йоханнес Хёйкьюр Йоханнессон, Асбьёрн Крог Ниссен, Лаура Берлин, Каролин Хендерсон, Брэдли Фригард, Поллианна МакИнтош, Дэвид Оукс, Пяяру Оя, Боско Хоган, Кеннет Эм Кристенсен

Описание:
Сиквел сериала «Викинги»: спустя 100 лет новое поколение легендарных героев начинает творить свою судьбу и историю. Рассказ о попытке викингов завоевать Англию, путешествии Лейфа Эрикссона в Америку, а также о драматической истории любви, вражды и мести на фоне распространения христианства среди викингов.



Страна: США
Студия: MGM Television, MGM/UA Television
Продолжительность: ~00:55:00 серия
Перевод: Профессиональный (дублированный) VSI Moscow по заказу Netflix
Субтитры: Russian (Forced, Full), English (SDH) и другие

Формат: Matroska
Качество: WEB-DLRip-AVC
Видео: 1024x512 at 23.976 fps, [email protected], ~1600 kbps
Аудио: AC3, 6 ch, ~448 kbps - | Русский |
Формат субтитров: softsub (SRT)
? Без Рекламы!

***Релиз от: -=DoMiNo=-
01. Гренландцы / The Greenlanders
02. Викинг / Viking
03. Болота / The Marshes
04. Мост / The Bridge
05. Чудо / Miracle
06. Последняя дочь Уппсалы / The Last Daughter of Uppsala
07. Выбор / Choices
08. Конец начала / The End of the Beginning
x264 [info]: frame I:671 Avg QP:16.00 size: 45130
x264 [info]: frame P:17327 Avg QP:18.18 size: 17249
x264 [info]: frame B:63101 Avg QP:19.46 size: 5494

General
Unique ID : 141596805936397366261364337260834091071 (0x6A868D881E455BDDF40674C31128703F)
Complete name : E:Vikings.Valhalla.S01E01.The.Greenlanders.mkv
Format : Matroska
Format version : Version 4
File size : 827 MiB
Duration : 56 min 24 s
Overall bit rate : 2 049 kb/s
Encoded date : UTC 2022-02-25 20:44:37
Writing application : mkvmerge v44.0.0 ('Domino') 64-bit
Writing library : libebml v1.3.10 + libmatroska v1.5.2
Cover : Yes
Attachments : cover.jpg / cover 2.jpg

Video
ID : 1
Format : AVC
Format/Info : Advanced Video Codec
Format profile : [email protected]
Format settings : CABAC / 10 Ref Frames
Format settings, CABAC : Yes
Format settings, Reference : 10 frames
Codec ID : V_MPEG4/ISO/AVC
Duration : 56 min 22 s
Bit rate : 1 598 kb/s
Width : 1 024 pixels
Height : 512 pixels
Display aspect ratio : 2.000
Frame rate mode : Constant
Frame rate : 23.976 (24000/1001) FPS
Color space : YUV
Chroma subsampling : 4:2:0
Bit depth : 8 bits
Scan type : Progressive
Bits/(Pixel*Frame) : 0.127
Stream size : 645 MiB (78%)
Title : -=DoMiNo=-
Writing library : x264 core 164 r3094 bfc87b7
Encoding settings : cabac=1 / ref=10 / deblock=1:-2:-1 / analyse=0x3:0x133 / me=umh / subme=9 / psy=1 / psy_rd=1.00:0.15 / mixed_ref=1 / me_range=32 / chroma_me=1 / trellis=2 / 8x8dct=1 / cqm=0 / deadzone=21,11 / fast_pskip=1 / chroma_qp_offset=-3 / threads=16 / lookahead_threads=4 / sliced_threads=0 / nr=0 / decimate=1 / interlaced=0 / bluray_compat=0 / constrained_intra=0 / bframes=12 / b_pyramid=2 / b_adapt=2 / b_bias=0 / direct=1 / weightb=1 / open_gop=0 / weightp=2 / keyint=250 / keyint_min=23 / scenecut=40 / intra_refresh=0 / rc_lookahead=60 / rc=crf / mbtree=0 / crf=20.0 / qcomp=0.60 / qpmin=0 / qpmax=69 / qpstep=4 / vbv_maxrate=50000 / vbv_bufsize=62500 / crf_max=0.0 / nal_hrd=none / filler=0 / ip_ratio=1.30 / pb_ratio=1.20 / aq=1:0.90
Language : English
Default : Yes
Forced : No

Audio
ID : 2
Format : AC-3
Format/Info : Audio Coding 3
Commercial name : Dolby Digital
Codec ID : A_AC3
Duration : 56 min 24 s
Bit rate mode : Constant
Bit rate : 448 kb/s
Channel(s) : 6 channels
Channel layout : L R C LFE Ls Rs
Sampling rate : 48.0 kHz
Frame rate : 31.250 FPS (1536 SPF)
Compression mode : Lossy
Stream size : 181 MiB (22%)
Language : Russian
Service kind : Complete Main
Default : Yes
Forced : No

Text #1
ID : 3
Format : UTF-8
Codec ID : S_TEXT/UTF8
Codec ID/Info : UTF-8 Plain Text
Duration : 54 min 30 s
Bit rate : 3 b/s
Count of elements : 24
Stream size : 1.40 KiB (0%)
Title : Forced
Language : Russian
Default : Yes
Forced : No

Text #2
ID : 4
Format : UTF-8
Codec ID : S_TEXT/UTF8
Codec ID/Info : UTF-8 Plain Text
Duration : 54 min 30 s
Bit rate : 64 b/s
Count of elements : 552
Stream size : 25.8 KiB (0%)
Language : Russian
Default : No
Forced : No

Text #3
ID : 5
Format : UTF-8
Codec ID : S_TEXT/UTF8
Codec ID/Info : UTF-8 Plain Text
Duration : 53 min 4 s
Bit rate : 48 b/s
Count of elements : 668
Stream size : 18.8 KiB (0%)
Title : SDH
Language : English
Default : No
Forced : No

Text #4
ID : 6
Format : UTF-8
Codec ID : S_TEXT/UTF8
Codec ID/Info : UTF-8 Plain Text
Duration : 54 min 30 s
Bit rate : 63 b/s
Count of elements : 552
Stream size : 25.2 KiB (0%)
Language : Hebrew
Default : No
Forced : No

Text #5
ID : 7
Format : UTF-8
Codec ID : S_TEXT/UTF8
Codec ID/Info : UTF-8 Plain Text
Duration : 54 min 30 s
Bit rate : 45 b/s
Count of elements : 552
Stream size : 18.2 KiB (0%)
Language : Romanian
Default : No
Forced : No

Text #6
ID : 8
Format : UTF-8
Codec ID : S_TEXT/UTF8
Codec ID/Info : UTF-8 Plain Text
Duration : 54 min 30 s
Bit rate : 67 b/s
Count of elements : 552
Stream size : 26.9 KiB (0%)
Language : Ukrainian
Default : No
Forced : No
pic pic pic pic pic pic pic pic pic pic

Этот торрент недоступен для скачивания без регистрации, однако доступен по публичной magnet-ссылке (источники с публичных трекеров). Перед использованием ссылки прочтите, пожалуйста Пользовательское соглашение, а также как можно дольше оставайтесь на раздаче! Для того, чтобы скачать сам торрент-файл (который видит больше источников), а также для того, чтобы поблагодарить релизера, вам необходимо зарегистрироваться. Если регистрироваться лень - вы можете также попробовать скачать релиз по нашим партнерским ссылкам ниже. Кроме того, зарегистрированным пользователям не показывается всплывающая реклама при скачивании.

[underver.se].t236328.torrent
Трекер: Зарегистрирован   [ 25.02.2022 21:43 ]  
Статус: проверено (by Robbertta at 26.02.2022 07:24)
Поблагодарили: 4 человека
Тип торрента: публичный - доступные источники с открытых трекеров: 
Размер: 5.64 GB (занимает 1.29 DVDR, для записи нужно 2 болванки DVDR/RW)
 
 

Яндекс.Метрика powered by Sphinx


В Н И М А Н И Е
Сайт не распространяет и не хранит электронные версии произведений, а лишь бесплатно и без коммерческой выгоды (не требуя взамен платы,
SMS и т.д.) предоставляет доступ к создаваемому пользователями каталогу ссылок на торрент-файлы, которые содержат только списки хеш-сумм.
Убедительная просьба с жалобами обращаться напрямую к пользователю, разместившему торрент файл.

Вверх