Loading...
Error

(Hard Rock, Heavy Metal) Tony Martin - Thorns (2022) [FLAC (Image+.CUE), Lossless]

Статистика раздачи
Размер:  399 MB   |    Зарегистрирован:  7 месяцев   |    Скачан:  7 раз

Полного источника не было: 1 месяц 16 дней

Сидов:  0  |  0 KB/s  ]   Личеров:  0  |  0 KB/s  ]

* - сиды/пиры с внешних источников

   
 
Автор Сообщение

Бишеп Пол:Муж

27-Фев-2022 13:33

Tony Martin - Thorns

Жанр: Hard Rock, Heavy Metal
Год выпуска: 2022
Носитель: CD
Производитель диска: Dark Star Records - DSR-0313
Аудиокодек: FLAC
Тип рипа: Image+.CUE
Битрейт аудио: lossless
Продолжительность: 00:49:10


Треклист:
01. As The World Burns (04:36)
02. Black Widow Angel (04:00)
03. Book Of Shadows (06:19)
04. Crying Wolf (04:26)
05. Damned By You (04:06)
06. No Shame At All (03:41)
07. Nowhere To Fly (04:47)
08. Passion Killer (04:50)
09. Run Like The Devil (03:55)
10. This Is Your Damnation (03:09)
11. Thorns (05:16)

Exact Audio Copy V1.6 from 23. October 2020 

EAC extraction logfile from 3. February 2022, 12:00

Tony Martin / Thorns

Used drive : TSSTcorpCDDVDW SH-224FB Adapter: 1 ID: 0

Read mode : Secure
Utilize accurate stream : Yes
Defeat audio cache : Yes
Make use of C2 pointers : No

Read offset correction : 6
Overread into Lead-In and Lead-Out : No
Fill up missing offset samples with silence : Yes
Delete leading and trailing silent blocks : No
Null samples used in CRC calculations : Yes
Used interface : Native Win32 interface for Win NT & 2000

Used output format : User Defined Encoder
Selected bitrate : 1024 kBit/s
Quality : High
Add ID3 tag : No
Command line compressor : C:\Program Files (x86)\Exact Audio Copy\Flac\flac.exe
Additional command line options : -V -8 -T "Date=%year%" -T "Genre=%genre%" -T"COMMENT=Ripped by Gra.mi" -8 -V %source%

TOC of the extracted CD

Track | Start | Length | Start sector | End sector
---------------------------------------------------------
1 | 0:00.00 | 4:36.06 | 0 | 20705
2 | 4:36.06 | 4:00.41 | 20706 | 38746
3 | 8:36.47 | 6:19.22 | 38747 | 67193
4 | 14:55.69 | 4:26.50 | 67194 | 87193
5 | 19:22.44 | 4:06.11 | 87194 | 105654
6 | 23:28.55 | 3:41.02 | 105655 | 122231
7 | 27:09.57 | 4:47.58 | 122232 | 143814
8 | 31:57.40 | 4:50.29 | 143815 | 165593
9 | 36:47.69 | 3:55.71 | 165594 | 183289
10 | 40:43.65 | 3:09.44 | 183290 | 197508
11 | 43:53.34 | 5:16.27 | 197509 | 221235

Range status and errors

Selected range

Filename D:\Tony Martin - Thorns\Tony Martin - Thorns.wav

Peak level 100.0 %
Extraction speed 3.0 X
Range quality 99.9 %
Test CRC 2A53E5AF
Copy CRC 2A53E5AF
Copy OK

No errors occurred

AccurateRip summary
Track 1 not present in database
Track 2 not present in database
Track 3 not present in database
Track 4 not present in database
Track 5 not present in database
Track 6 not present in database
Track 7 not present in database
Track 8 not present in database
Track 9 not present in database
Track 10 not present in database
Track 11 not present in database
None of the tracks are present in the AccurateRip database

End of status report

---- CUETools DB Plugin V2.1.6

[CTDB TOCID: mHqQwunK0zZEQcXyd60SmdrJddY-] found
Submit result: mHqQwunK0zZEQcXyd60SmdrJddY- has been confirmed
Track | CTDB Status
1 | (5/5) Accurately ripped
2 | (5/5) Accurately ripped
3 | (5/5) Accurately ripped
4 | (5/5) Accurately ripped
5 | (5/5) Accurately ripped
6 | (5/5) Accurately ripped
7 | (5/5) Accurately ripped
8 | (5/5) Accurately ripped
9 | (5/5) Accurately ripped
10 | (5/5) Accurately ripped
11 | (5/5) Accurately ripped

==== Log checksum 51AE8D89EEAA7E8DC3CF7C75C5C4F10A98C13CA1187438E677B2E519227DED73 ====
REM GENRE "Hard Rock" 
REM DATE 2022
REM DISCID 960B850B
REM COMMENT "ExactAudioCopy v1.6"
PERFORMER "Tony Martin"
TITLE "Thorns"
REM COMPOSER ""
FILE "Tony Martin - Thorns.flac" WAVE
TRACK 01 AUDIO
TITLE "As The World Burns"
PERFORMER "Tony Martin"
REM COMPOSER ""
INDEX 01 00:00:00
TRACK 02 AUDIO
TITLE "Black Widow Angel"
PERFORMER "Tony Martin"
REM COMPOSER ""
INDEX 01 04:36:06
TRACK 03 AUDIO
TITLE "Book Of Shadows"
PERFORMER "Tony Martin"
REM COMPOSER ""
INDEX 01 08:36:47
TRACK 04 AUDIO
TITLE "Crying Wolf"
PERFORMER "Tony Martin"
REM COMPOSER ""
INDEX 01 14:55:69
TRACK 05 AUDIO
TITLE "Damned By You"
PERFORMER "Tony Martin"
REM COMPOSER ""
INDEX 01 19:22:44
TRACK 06 AUDIO
TITLE "No Shame At All"
PERFORMER "Tony Martin"
REM COMPOSER ""
INDEX 01 23:28:55
TRACK 07 AUDIO
TITLE "Nowhere To Fly"
PERFORMER "Tony Martin"
REM COMPOSER ""
INDEX 01 27:09:57
TRACK 08 AUDIO
TITLE "Passion Killer"
PERFORMER "Tony Martin"
REM COMPOSER ""
INDEX 01 31:57:40
TRACK 09 AUDIO
TITLE "Run Like The Devil"
PERFORMER "Tony Martin"
REM COMPOSER ""
INDEX 01 36:47:69
TRACK 10 AUDIO
TITLE "This Is Your Damnation"
PERFORMER "Tony Martin"
REM COMPOSER ""
INDEX 01 40:43:65
TRACK 11 AUDIO
TITLE "Thorns"
PERFORMER "Tony Martin"
REM COMPOSER ""
INDEX 01 43:53:34

Этот торрент недоступен для скачивания без регистрации, однако доступен по публичной magnet-ссылке (источники с публичных трекеров). Перед использованием ссылки прочтите, пожалуйста Пользовательское соглашение, а также как можно дольше оставайтесь на раздаче! Для того, чтобы скачать сам торрент-файл (который видит больше источников), а также для того, чтобы поблагодарить релизера, вам необходимо зарегистрироваться. Если регистрироваться лень - вы можете также попробовать скачать релиз по нашим партнерским ссылкам ниже. Кроме того, зарегистрированным пользователям не показывается всплывающая реклама при скачивании.

[underver.se].t236404.torrent
Трекер: Зарегистрирован   [ 27.02.2022 13:34 ]  
Статус: проверено (by Бишеп at 27.02.2022 13:34)
Поблагодарили: пока никто не поблагодарил...
Тип торрента: публичный - доступные источники с открытых трекеров: 
Размер: 399 MB (занимает 0.09 DVDR, для записи нужно 1 болванка DVDR/RW)
 
 

Яндекс.Метрика powered by Sphinx


В Н И М А Н И Е
Сайт не распространяет и не хранит электронные версии произведений, а лишь бесплатно и без коммерческой выгоды (не требуя взамен платы,
SMS и т.д.) предоставляет доступ к создаваемому пользователями каталогу ссылок на торрент-файлы, которые содержат только списки хеш-сумм.
Убедительная просьба с жалобами обращаться напрямую к пользователю, разместившему торрент файл.

Вверх