Loading...
Error

(Psychedelic Rock, Progressive Rock) Shuttah - The Image Maker Vol 1 & 2 (2002) 2CD [FLAC (Image+.CUE), Lossless]

Статистика раздачи
Размер:  370 MB   |    Зарегистрирован:  7 месяцев   |    Скачан:  2 раза

Полного источника не было: 1 месяц 23 дня

Сидов:  0  |  0 KB/s  ]   Личеров:  0  |  0 KB/s  ]

* - сиды/пиры с внешних источников

   
 
Автор Сообщение

Бишеп Пол:Муж

28-Фев-2022 14:06

Shuttah - The Image Maker Vol 1 & 2

Жанр: Psychedelic Rock, Progressive Rock
Год выпуска: 2002
Носитель: CD
Производитель диска: Shadoks Music - CD 030
Аудиокодек: FLAC
Тип рипа: Image+.CUE
Битрейт аудио: lossless
Продолжительность: 01:03:39

Треклист:
01. Image Maker
02. Bull Run
03. Cry Me Little Darling
04. Lady Smith
05. Village Green
06. The Crimp
07. Christmas 1914
08. The Fens

Exact Audio Copy V1.1 from 23. June 2015 

EAC extraction logfile from 10. December 2017, 10:46

Shuttah / The Image Maker Vol 1 & 2 (Disc 1)

Used drive : TSSTcorpCDDVDW SH-224DB Adapter: 1 ID: 0

Read mode : Secure
Utilize accurate stream : Yes
Defeat audio cache : Yes
Make use of C2 pointers : No

Read offset correction : 6
Overread into Lead-In and Lead-Out : No
Fill up missing offset samples with silence : Yes
Delete leading and trailing silent blocks : No
Null samples used in CRC calculations : Yes
Used interface : Native Win32 interface for Win NT & 2000

Used output format : User Defined Encoder
Selected bitrate : 1024 kBit/s
Quality : High
Add ID3 tag : No
Command line compressor : C:\Program Files (x86)\Exact Audio Copy\win64\flac.exe
Additional command line options : -8 -V -T "ARTIST=%artist%" -T "TITLE=%title%" -T "ALBUM=%albumtitle%" -T "DATE=%year%" -T "TRACKNUMBER=%tracknr%" -T "GENRE=%genre%" -T "COMMENT=%comment%" %source% -o %dest%

TOC of the extracted CD

Track | Start | Length | Start sector | End sector
---------------------------------------------------------
1 | 0:00.00 | 3:06.71 | 0 | 14020
2 | 3:06.71 | 5:15.64 | 14021 | 37709
3 | 8:22.60 | 2:27.33 | 37710 | 48767
4 | 10:50.18 | 4:21.37 | 48768 | 68379
5 | 15:11.55 | 0:54.39 | 68380 | 72468
6 | 16:06.19 | 7:27.03 | 72469 | 105996
7 | 23:33.22 | 2:15.39 | 105997 | 116160
8 | 25:48.61 | 5:51.57 | 116161 | 142542

Range status and errors

Selected range

Filename F:\Sket4er\Shuttah – The Image Maker Vol. 1 & 2 (1971) 2002\CD - 1\Shuttah - The Image Maker Vol 1 & 2 (Disc 1).wav

Peak level 99.8 %
Extraction speed 2.8 X
Range quality 100.0 %
Test CRC 68DEC70B
Copy CRC 68DEC70B
Copy OK

No errors occurred

AccurateRip summary
Track 1 cannot be verified as accurate (confidence 2) [395B7897], AccurateRip returned [AC7B1C98] (AR v2)
Track 2 cannot be verified as accurate (confidence 2) [8DA8C70A], AccurateRip returned [8B18A2B7] (AR v2)
Track 3 cannot be verified as accurate (confidence 2) [244DD743], AccurateRip returned [412E7085] (AR v2)
Track 4 cannot be verified as accurate (confidence 2) [D9D18486], AccurateRip returned [2FAC4D65] (AR v2)
Track 5 cannot be verified as accurate (confidence 2) [BB0D11EE], AccurateRip returned [C8F090B4] (AR v2)
Track 6 cannot be verified as accurate (confidence 2) [2B2FAAAC], AccurateRip returned [539FDA45] (AR v2)
Track 7 cannot be verified as accurate (confidence 2) [838453CE], AccurateRip returned [94BA5E74] (AR v2)
Track 8 cannot be verified as accurate (confidence 2) [63AB2CFA], AccurateRip returned [2D24A8FE] (AR v2)
No tracks could be verified as accurate
You may have a different pressing from the one(s) in the database

End of status report

---- CUETools DB Plugin V2.1.6

[CTDB TOCID: p8MAajssbXsTEJn_i2arSOasRV0-] found
Submit result: p8MAajssbXsTEJn_i2arSOasRV0- has been confirmed
Track | CTDB Status
1 | (4/4) Accurately ripped
2 | (4/4) Accurately ripped
3 | (4/4) Accurately ripped
4 | (4/4) Accurately ripped
5 | (4/4) Accurately ripped
6 | (4/4) Accurately ripped
7 | (4/4) Accurately ripped
8 | (4/4) Accurately ripped

==== Log checksum 3073ECD0282E1BFBEEF60BB1C8572A030C010FA004FAE360B9401656539BDB8E ====
REM GENRE "Psychedelic Rock" 
REM DATE 1971
REM DISCID 63076C08
REM COMMENT "ExactAudioCopy v1.1"
PERFORMER "Shuttah"
TITLE "The Image Maker Vol 1 & 2 (Disc 1)"
FILE "Shuttah - The Image Maker Vol 1 & 2 (Disc 1).flac" WAVE
TRACK 01 AUDIO
TITLE "Image Maker"
PERFORMER "Shuttah"
INDEX 01 00:00:00
TRACK 02 AUDIO
TITLE "Bull Run"
PERFORMER "Shuttah"
INDEX 01 03:06:71
TRACK 03 AUDIO
TITLE "Cry Me Little Darling"
PERFORMER "Shuttah"
INDEX 01 08:22:60
TRACK 04 AUDIO
TITLE "Lady Smith"
PERFORMER "Shuttah"
INDEX 01 10:50:18
TRACK 05 AUDIO
TITLE "Village Green"
PERFORMER "Shuttah"
INDEX 01 15:11:55
TRACK 06 AUDIO
TITLE "The Crimp"
PERFORMER "Shuttah"
INDEX 01 16:06:19
TRACK 07 AUDIO
TITLE "Christmas 1914"
PERFORMER "Shuttah"
INDEX 01 23:33:22
TRACK 08 AUDIO
TITLE "The Fens"
PERFORMER "Shuttah"
INDEX 01 25:48:61
Треклист:
01. Guernica
02. World War II
03. Concrete
04. Imjin
05. She's A Bad Girl
06. The Wizard
07. Tell Me Why
08. Conclusion

Exact Audio Copy V1.1 from 23. June 2015 

EAC extraction logfile from 10. December 2017, 11:14

Shuttah / The Image Maker Vol 1 & 2 (Disc 2)

Used drive : TSSTcorpCDDVDW SH-224DB Adapter: 1 ID: 0

Read mode : Secure
Utilize accurate stream : Yes
Defeat audio cache : Yes
Make use of C2 pointers : No

Read offset correction : 6
Overread into Lead-In and Lead-Out : No
Fill up missing offset samples with silence : Yes
Delete leading and trailing silent blocks : No
Null samples used in CRC calculations : Yes
Used interface : Native Win32 interface for Win NT & 2000

Used output format : User Defined Encoder
Selected bitrate : 1024 kBit/s
Quality : High
Add ID3 tag : No
Command line compressor : C:\Program Files (x86)\Exact Audio Copy\win64\flac.exe
Additional command line options : -8 -V -T "ARTIST=%artist%" -T "TITLE=%title%" -T "ALBUM=%albumtitle%" -T "DATE=%year%" -T "TRACKNUMBER=%tracknr%" -T "GENRE=%genre%" -T "COMMENT=%comment%" %source% -o %dest%

TOC of the extracted CD

Track | Start | Length | Start sector | End sector
---------------------------------------------------------
1 | 0:00.00 | 2:36.60 | 0 | 11759
2 | 2:36.60 | 6:54.71 | 11760 | 42880
3 | 9:31.56 | 1:14.14 | 42881 | 48444
4 | 10:45.70 | 5:04.38 | 48445 | 71282
5 | 15:50.33 | 3:01.16 | 71283 | 84873
6 | 18:51.49 | 5:34.58 | 84874 | 109981
7 | 24:26.32 | 2:23.10 | 109982 | 120716
8 | 26:49.42 | 5:09.12 | 120717 | 143903

Range status and errors

Selected range

Filename F:\Sket4er\Shuttah – The Image Maker Vol. 1 & 2 (1971) 2002\CD - 2\Shuttah - The Image Maker Vol 1 & 2 (Disc 2).wav

Peak level 99.8 %
Extraction speed 2.8 X
Range quality 100.0 %
Test CRC 34E8E68F
Copy CRC 34E8E68F
Copy OK

No errors occurred

AccurateRip summary
Track 1 cannot be verified as accurate (confidence 2) [B93F7F78], AccurateRip returned [B054F84F] (AR v2)
Track 2 cannot be verified as accurate (confidence 2) [2B036A71], AccurateRip returned [090C256A] (AR v2)
Track 3 cannot be verified as accurate (confidence 2) [814A1214], AccurateRip returned [CA552D10] (AR v2)
Track 4 cannot be verified as accurate (confidence 2) [DAB131C5], AccurateRip returned [192A511A] (AR v2)
Track 5 cannot be verified as accurate (confidence 2) [5E33DF62], AccurateRip returned [7FCC17D2] (AR v2)
Track 6 cannot be verified as accurate (confidence 2) [A63505E5], AccurateRip returned [41AAF3AF] (AR v2)
Track 7 cannot be verified as accurate (confidence 2) [62D9F270], AccurateRip returned [BCFC0B77] (AR v2)
Track 8 cannot be verified as accurate (confidence 2) [0F7188A6], AccurateRip returned [DBE3E54E] (AR v2)
No tracks could be verified as accurate
You may have a different pressing from the one(s) in the database

End of status report

---- CUETools DB Plugin V2.1.6

[CTDB TOCID: RIdirftW.AVpbLBbpO4jtgLeZgo-] found
Submit result: RIdirftW.AVpbLBbpO4jtgLeZgo- has been confirmed
Track | CTDB Status
1 | (4/4) Accurately ripped
2 | (4/4) Accurately ripped
3 | (4/4) Accurately ripped
4 | (4/4) Accurately ripped
5 | (4/4) Accurately ripped
6 | (4/4) Accurately ripped
7 | (4/4) Accurately ripped
8 | (4/4) Accurately ripped

==== Log checksum 5AF52503F147F98E87A56D8683581DB7459EBE685863FD0AF88F84210CEE04F9 ====
REM GENRE "Psychedelic Rock" 
REM DATE 1971
REM DISCID 64077E08
REM COMMENT "ExactAudioCopy v1.1"
PERFORMER "Shuttah"
TITLE "The Image Maker Vol 1 & 2 (Disc 2)"
FILE "Shuttah - The Image Maker Vol 1 & 2 (Disc 2).flac" WAVE
TRACK 01 AUDIO
TITLE "Guernica"
PERFORMER "Shuttah"
INDEX 01 00:00:00
TRACK 02 AUDIO
TITLE "World War II"
PERFORMER "Shuttah"
INDEX 01 02:36:60
TRACK 03 AUDIO
TITLE "Concrete"
PERFORMER "Shuttah"
INDEX 01 09:31:56
TRACK 04 AUDIO
TITLE "Imjin"
PERFORMER "Shuttah"
INDEX 01 10:45:70
TRACK 05 AUDIO
TITLE "She's A Bad Girl"
PERFORMER "Shuttah"
INDEX 01 15:50:33
TRACK 06 AUDIO
TITLE "The Wizard"
PERFORMER "Shuttah"
INDEX 01 18:51:49
TRACK 07 AUDIO
TITLE "Tell Me Why"
PERFORMER "Shuttah"
INDEX 01 24:26:32
TRACK 08 AUDIO
TITLE "Conclusion"
PERFORMER "Shuttah"
INDEX 01 26:49:42

Этот торрент недоступен для скачивания без регистрации, однако доступен по публичной magnet-ссылке (источники с публичных трекеров). Перед использованием ссылки прочтите, пожалуйста Пользовательское соглашение, а также как можно дольше оставайтесь на раздаче! Для того, чтобы скачать сам торрент-файл (который видит больше источников), а также для того, чтобы поблагодарить релизера, вам необходимо зарегистрироваться. Если регистрироваться лень - вы можете также попробовать скачать релиз по нашим партнерским ссылкам ниже. Кроме того, зарегистрированным пользователям не показывается всплывающая реклама при скачивании.

[underver.se].t236440.torrent
Трекер: Зарегистрирован   [ 28.02.2022 14:06 ]  
Статус: проверено (by Бишеп at 28.02.2022 14:07)
Поблагодарили: пока никто не поблагодарил...
Тип торрента: публичный - доступные источники с открытых трекеров: 
Размер: 370 MB (занимает 0.08 DVDR, для записи нужно 1 болванка DVDR/RW)
 
 

Яндекс.Метрика powered by Sphinx


В Н И М А Н И Е
Сайт не распространяет и не хранит электронные версии произведений, а лишь бесплатно и без коммерческой выгоды (не требуя взамен платы,
SMS и т.д.) предоставляет доступ к создаваемому пользователями каталогу ссылок на торрент-файлы, которые содержат только списки хеш-сумм.
Убедительная просьба с жалобами обращаться напрямую к пользователю, разместившему торрент файл.

Вверх