Loading...
Error

(Progressive Rock, Progressive Rock) Caravan - If I Could Do It All Over Again, I'd Do It All Over You (1988) [FLAC (Image+.CUE), Lossless]

Статистика раздачи
Размер:  273 MB   |    Зарегистрирован:  6 месяцев   |    Скачан:  1 раз

Полного источника не было: 1 день 22 часа

Сидов:  0  |  0 KB/s  ]   Личеров:  0  |  0 KB/s  ]

* - сиды/пиры с внешних источников

   
 
Автор Сообщение

Бишеп Пол:Муж

01-Мар-2022 15:55

Caravan - If I Could Do It All Over Again, I'd Do It All Over You

Жанр: Progressive Rock, Progressive Rock
Год выпуска: 1988
Носитель: CD
Производитель диска: Mantra - MANTRA 001
Аудиокодек: FLAC
Тип рипа: Image+.CUE
Битрейт аудио: lossless
Продолжительность: 00:47:25


Треклист:
01. If I Could Do It All Over Again, I'd Do It All Over You (03:05)
02. And I Wish I Were Stoned / Don't Worry (08:12)
03. As I Feel I Die (05:12)
04. With An Ear To The Ground You Can Make It / Martinian / Only Cox / Reprise (09:51)
05. Hello Hello (03:44)
06. Asforteri (01:12)
07. Can't Be Long Now / Francoise / For Richard / Warlock (14:17)
08. Limits - 1:32)

Exact Audio Copy V1.0 beta 6 from 9. April 2015 

Отчёт EAC об извлечении, выполненном 19. декабря 2015, 10:27

Caravan / If I Could Do It All Over Again, I'd Do It All Over You

Дисковод: ATAPI iHAP122 W Adapter: 1 ID: 0

Режим чтения : Достоверность
Использование точного потока : Да
Отключение кэша аудио : Да
Использование указателей C2 : Нет

Коррекция смещения при чтении : 6
Способность читать области Lead-in и Lead-out : Нет
Заполнение пропущенных сэмплов тишиной : Да
Удаление блоков с тишиной в начале и конце : Нет
При вычислениях CRC использовались нулевые сэмплы : Да
Интерфейс : Встроенный Win32-интерфейс для Win NT/2000

Выходной формат : Внутренние WAV-операции
Формат сэмплов : 44.100 Гц; 16 бит; стерео

TOC извлечённого CD

Трек | Старт | Длительность | Начальный сектор | Конечный сектор
---------------------------------------------------------------------
1 | 0:00.32 | 3:07.10 | 32 | 14066
2 | 3:07.42 | 8:18.60 | 14067 | 51476
3 | 11:26.27 | 5:05.53 | 51477 | 74404
4 | 16:32.05 | 9:53.57 | 74405 | 118936
5 | 26:25.62 | 3:45.10 | 118937 | 135821
6 | 30:10.72 | 1:21.70 | 135822 | 141966
7 | 31:32.67 | 14:19.23 | 141967 | 206414
8 | 45:52.15 | 1:33.15 | 206415 | 213404

Характеристики диапазона извлечения и сообщения об ошибках

Выбранный диапазон

Имя файла D:\obraz\Caravan - 1970 - If I Could Do It All Over Again, I'd Do It All Over You\Caravan - If I Could Do It All Over Again, I'd Do It All Over You.wav

Пиковый уровень 97.7 %
Скорость извлечения 7.6 X
Качество диапазона 100.0 %
CRC теста 05CCE30B
CRC копии 05CCE30B
Копирование... OK

Ошибок не произошло

AccurateRip: сводка
Трек 1 : извлечено точно (доверие 6) [5489DF76] (AR v2)
Трек 2 : извлечено точно (доверие 9) [ECE46133] (AR v2)
Трек 3 : извлечено точно (доверие 9) [EB177A62] (AR v2)
Трек 4 : извлечено точно (доверие 8) [C25CCF70] (AR v2)
Трек 5 : извлечено точно (доверие 9) [82189241] (AR v2)
Трек 6 : извлечено точно (доверие 9) [F3299272] (AR v2)
Трек 7 : извлечено точно (доверие 5) [6C8FAD60] (AR v2)
Трек 8 : извлечено точно (доверие 9) [7E7C28EB] (AR v2)
Все треки извлечены точно

Конец отчёта

---- CUETools DB Plugin V2.1.6

[CTDB TOCID: zCecthjgVL1B9sV6VvtNRztcGm4-] found
Submit result: zCecthjgVL1B9sV6VvtNRztcGm4- has been confirmed
Track | CTDB Status
1 | (1/1) Accurately ripped
2 | (1/1) Accurately ripped
3 | (1/1) Accurately ripped
4 | (1/1) Accurately ripped
5 | (1/1) Accurately ripped
6 | (1/1) Accurately ripped
7 | (1/1) Accurately ripped
8 | (1/1) Accurately ripped

==== Контрольная сумма отчёта 3144FC9149E1E05A5E44D6BFCB5CA9BA78DE717E6A02F49214179202986045F7 ====
REM GENRE Progressive
REM DATE 1970
REM DISCID 890B1D08
REM COMMENT "ExactAudioCopy v1.0b6"
PERFORMER "Caravan"
TITLE "If I Could Do It All Over Again, I'd Do It All Over You"
FILE "Caravan - If I Could Do It All Over Again, I'd Do It All Over You.wav" WAVE
TRACK 01 AUDIO
TITLE "If I Could Do It All Again, I'd Do It All Over You"
PERFORMER "Caravan"
INDEX 00 00:00:00
INDEX 01 00:00:32
TRACK 02 AUDIO
TITLE "And I Wish I Were Stoned / Don't Worry"
PERFORMER "Caravan"
INDEX 00 03:06:20
INDEX 01 03:07:42
TRACK 03 AUDIO
TITLE "As I Feel I Die"
PERFORMER "Caravan"
INDEX 01 11:26:27
TRACK 04 AUDIO
TITLE "With An Ear To The Ground / You Can Make It / Martinian / Only Cox / Reprise"
PERFORMER "Caravan"
INDEX 01 16:32:05
TRACK 05 AUDIO
TITLE "Hello Hello"
PERFORMER "Caravan"
INDEX 00 26:23:67
INDEX 01 26:25:62
TRACK 06 AUDIO
TITLE "As Forteri 25"
PERFORMER "Caravan"
INDEX 01 30:10:72
TRACK 07 AUDIO
TITLE "Can't Be Long Now / Francoise / For Richard / Warlock"
PERFORMER "Caravan"
INDEX 00 31:31:27
INDEX 01 31:32:67
TRACK 08 AUDIO
TITLE "Limits"
PERFORMER "Caravan"
INDEX 00 45:50:52
INDEX 01 45:52:15
 	

Этот торрент недоступен для скачивания без регистрации, однако доступен по публичной magnet-ссылке (источники с публичных трекеров). Перед использованием ссылки прочтите, пожалуйста Пользовательское соглашение, а также как можно дольше оставайтесь на раздаче! Для того, чтобы скачать сам торрент-файл (который видит больше источников), а также для того, чтобы поблагодарить релизера, вам необходимо зарегистрироваться. Если регистрироваться лень - вы можете также попробовать скачать релиз по нашим партнерским ссылкам ниже. Кроме того, зарегистрированным пользователям не показывается всплывающая реклама при скачивании.

[underver.se].t236531.torrent
Трекер: Зарегистрирован   [ 01.03.2022 15:55 ]  
Статус: проверено (by Бишеп at 01.03.2022 15:55)
Поблагодарили: пока никто не поблагодарил...
Тип торрента: публичный - доступные источники с открытых трекеров: 
Размер: 273 MB (занимает 0.06 DVDR, для записи нужно 1 болванка DVDR/RW)
 
 

Яндекс.Метрика powered by Sphinx


В Н И М А Н И Е
Сайт не распространяет и не хранит электронные версии произведений, а лишь бесплатно и без коммерческой выгоды (не требуя взамен платы,
SMS и т.д.) предоставляет доступ к создаваемому пользователями каталогу ссылок на торрент-файлы, которые содержат только списки хеш-сумм.
Убедительная просьба с жалобами обращаться напрямую к пользователю, разместившему торрент файл.

Вверх