Loading...
Error

(Hard Rock) Warhorse - Warhorse (1990) [FLAC (Image+.CUE), Lossless]

Статистика раздачи
Размер:  424 MB   |    Зарегистрирован:  7 месяцев   |    Скачан:  3 раза

Полного источника не было: 14 дней

Сидов:  0  |  0 KB/s  ]   Личеров:  0  |  0 KB/s  ]

* - сиды/пиры с внешних источников

   
 
Автор Сообщение

Бишеп Пол:Муж

02-Мар-2022 07:31

Warhorse - Warhorse

Жанр: Hard Rock
Год выпуска: 1990
Носитель: CD
Производитель диска: Repertoire Records - RR 4055-CC
Аудиокодек: FLAC
Тип рипа: Image+.CUE
Битрейт аудио: lossless
Продолжительность: 00:43:43


Треклист:
01. Vulture Blood (06:13)
02. No Chance (06:23)
03. Burning (06:18)
04. St. Louis (George Young, Harry Vanda) (03:51)
05. Ritual (04:55)
06. Solitude (08:50)
07. Woman Of The Devil (07:11)

Exact Audio Copy V1.0 beta 3 from 29. August 2011 

EAC extraction logfile from 26. November 2015, 15:15

Warhorse / Warhorse (RR 4055-CC)

Used drive : HL-DT-STDVD-RAM GSA-H22L Adapter: 4 ID: 4

Read mode : Secure
Utilize accurate stream : Yes
Defeat audio cache : Yes
Make use of C2 pointers : No

Read offset correction : 102
Overread into Lead-In and Lead-Out : No
Fill up missing offset samples with silence : Yes
Delete leading and trailing silent blocks : No
Null samples used in CRC calculations : Yes
Used interface : Native Win32 interface for Win NT & 2000

Used output format : Internal WAV Routines
Sample format : 44.100 Hz; 16 Bit; Stereo

TOC of the extracted CD

Track | Start | Length | Start sector | End sector
---------------------------------------------------------
1 | 0:00.00 | 6:13.15 | 0 | 27989
2 | 6:13.15 | 6:23.17 | 27990 | 56731
3 | 12:36.32 | 6:18.15 | 56732 | 85096
4 | 18:54.47 | 3:51.25 | 85097 | 102446
5 | 22:45.72 | 4:55.15 | 102447 | 124586
6 | 27:41.12 | 8:50.50 | 124587 | 164386
7 | 36:31.62 | 7:11.20 | 164387 | 196731

Range status and errors

Selected range

Filename D:\Ready.zp\Warhorse - Warhorse (RR 4055-CC).wav

Peak level 85.2 %
Extraction speed 2.5 X
Range quality 100.0 %
Test CRC 41315768
Copy CRC 41315768
Copy OK

No errors occurred

AccurateRip summary
Track 1 accurately ripped (confidence 9) [D6EA5F83] (AR v2)
Track 2 accurately ripped (confidence 9) [096814EF] (AR v2)
Track 3 accurately ripped (confidence 9) [A8205C14] (AR v2)
Track 4 accurately ripped (confidence 9) [B03F383D] (AR v2)
Track 5 accurately ripped (confidence 9) [87F91165] (AR v2)
Track 6 accurately ripped (confidence 9) [2B2E600B] (AR v2)
Track 7 accurately ripped (confidence 9) [6BC04B73] (AR v2)
All tracks accurately ripped

End of status report

---- CUETools DB Plugin V2.1.3

[CTDB TOCID: 5BHDFeS_c.AKErtCbpztAQNUC40-] found, Submit result: 5BHDFeS_c.AKErtCbpztAQNUC40- has been confirmed
[45118bc4] (7/7) Accurately ripped

==== Log checksum 2680819820093410A5705F25A98326175323307DFAE76F7114569ED3444EA472 ====
REM GENRE Rock 
REM DATE 1970
REM DISCID 600A3F07
REM COMMENT "ExactAudioCopy v1.0b3"
PERFORMER "Warhorse"
TITLE "Warhorse (RR 4055-CC)"
FILE "Warhorse - Warhorse (RR 4055-CC).flac" WAVE
TRACK 01 AUDIO
TITLE "Vulture Blood"
PERFORMER "Warhorse"
INDEX 01 00:00:00
TRACK 02 AUDIO
TITLE "No Chance"
PERFORMER "Warhorse"
INDEX 00 06:08:70
INDEX 01 06:13:15
TRACK 03 AUDIO
TITLE "Burning"
PERFORMER "Warhorse"
INDEX 00 12:32:67
INDEX 01 12:36:32
TRACK 04 AUDIO
TITLE "St. Louis"
PERFORMER "Warhorse"
INDEX 00 18:50:47
INDEX 01 18:54:47
TRACK 05 AUDIO
TITLE "Ritual"
PERFORMER "Warhorse"
INDEX 00 22:42:67
INDEX 01 22:45:72
TRACK 06 AUDIO
TITLE "Solitude"
PERFORMER "Warhorse"
INDEX 00 27:38:22
INDEX 01 27:41:12
TRACK 07 AUDIO
TITLE "Woman Of The Devil"
PERFORMER "Warhorse"
INDEX 00 36:26:62
INDEX 01 36:31:62

Этот торрент недоступен для скачивания без регистрации, однако доступен по публичной magnet-ссылке (источники с публичных трекеров). Перед использованием ссылки прочтите, пожалуйста Пользовательское соглашение, а также как можно дольше оставайтесь на раздаче! Для того, чтобы скачать сам торрент-файл (который видит больше источников), а также для того, чтобы поблагодарить релизера, вам необходимо зарегистрироваться. Если регистрироваться лень - вы можете также попробовать скачать релиз по нашим партнерским ссылкам ниже. Кроме того, зарегистрированным пользователям не показывается всплывающая реклама при скачивании.

[underver.se].t236570.torrent
Трекер: Зарегистрирован   [ 02.03.2022 07:31 ]  
Статус: проверено (by Бишеп at 02.03.2022 07:31)
Поблагодарили: пока никто не поблагодарил...
Тип торрента: публичный - доступные источники с открытых трекеров: 
Размер: 424 MB (занимает 0.09 DVDR, для записи нужно 1 болванка DVDR/RW)
 
 

Яндекс.Метрика powered by Sphinx


В Н И М А Н И Е
Сайт не распространяет и не хранит электронные версии произведений, а лишь бесплатно и без коммерческой выгоды (не требуя взамен платы,
SMS и т.д.) предоставляет доступ к создаваемому пользователями каталогу ссылок на торрент-файлы, которые содержат только списки хеш-сумм.
Убедительная просьба с жалобами обращаться напрямую к пользователю, разместившему торрент файл.

Вверх