Loading...
Error

(House) Everything But The Girl - Missing (1995) Single [FLAC (Tracks+.Cue), Lossless]

Статистика раздачи
Размер:  215 MB   |    Зарегистрирован:  7 месяцев   |    Скачан:  2 раза

Полного источника не было: 10 часов

Сидов:  0  |  0 KB/s  ]   Личеров:  0  |  0 KB/s  ]

* - сиды/пиры с внешних источников

   
 
Автор Сообщение

Бишеп Пол:Муж

02-Мар-2022 16:08

Everything But The Girl - Missing

Жанр: House
Год выпуска: 1995
Носитель: CD
Производитель диска: Blanco Y Negro - Neg 84CD / Neg84CD, Eternal - 0630-12527-2
Аудиокодек: FLAC
Тип рипа: Tracks+.CUE
Битрейт аудио: lossless
Продолжительность: 00:33:57


Треклист:
01. Missing (Todd Terry Club Mix) (Blanco/Eternal Radio Edit)
02. Missing (Todd Terry Club Mix)
03. Missing (Rockin' Blue Mix)
04. Missing (Chris & James Full On Club Mix)
05. Missing (Amplified Heart Album Mix)
06. Missing (Todd Terry Tee's Piece)

Exact Audio Copy V0.99 prebeta 4 from 23. January 2008 

EAC extraction logfile from 17. September 2008, 0:55

Everything But The Girl / Missing

Used drive : PLEXTOR CD-R PREMIUM Adapter: 3 ID: 1

Read mode : Secure
Utilize accurate stream : Yes
Defeat audio cache : Yes
Make use of C2 pointers : No

Read offset correction : 30
Overread into Lead-In and Lead-Out : Yes
Fill up missing offset samples with silence : Yes
Delete leading and trailing silent blocks : No
Null samples used in CRC calculations : Yes
Used interface : Native Win32 interface for Win NT & 2000
Gap handling : Appended to previous track

Used output format : User Defined Encoder
Selected bitrate : 768 kBit/s
Quality : High
Add ID3 tag : No
Command line compressor : E:\Program Files\Exact Audio Copy\FLAC\FLAC.EXE
Additional command line options : -8 -V -T "ARTIST=%a" -T "TITLE=%t" -T "ALBUM=%g" -T "DATE=%y" -T "TRACKNUMBER=%n" -T "TOTALTRACKS=%x" -T "GENRE=%m" -T "ALBUMARTIST=%v" -T "ALBUM ARTIST=%v" -T "COMMENT=EAC V0.99 prebeta 4, Secure Mode, Test & Copy, Accurat

TOC of the extracted CD

Track | Start | Length | Start sector | End sector
---------------------------------------------------------
1 | 0:00.00 | 3:56.15 | 0 | 17714
2 | 3:56.15 | 4:58.02 | 17715 | 40066
3 | 8:54.17 | 7:49.00 | 40067 | 75241
4 | 16:43.17 | 8:36.05 | 75242 | 113946
5 | 25:19.22 | 4:05.15 | 113947 | 132336
6 | 29:24.37 | 4:33.38 | 132337 | 152849

Track 1

Filename R:\Pedro\01 - Missing (Todd Terry Club Mix Blanco-Eternal Radio Edit).wav

Pre-gap length 0:00:02.00

Peak level 98.0 %
Track quality 100.0 %
Test CRC 87AB58A2
Copy CRC 87AB58A2
Accurately ripped (confidence 11) [3A3D5C00]
Copy OK

Track 2

Filename R:\Pedro\02 - Missing (Todd Terry Club Mix).wav

Pre-gap length 0:00:01.66

Peak level 98.0 %
Track quality 99.9 %
Test CRC 7C662F02
Copy CRC 7C662F02
Accurately ripped (confidence 11) [0D199C74]
Copy OK

Track 3

Filename R:\Pedro\03 - Missing (Rockin' Blue Mix).wav

Pre-gap length 0:00:01.66

Peak level 98.0 %
Track quality 100.0 %
Test CRC 57631DBB
Copy CRC 57631DBB
Accurately ripped (confidence 11) [2E526F84]
Copy OK

Track 4

Filename R:\Pedro\04 - Missing (Chris & James Full On Club Mix).wav

Pre-gap length 0:00:01.00

Peak level 98.0 %
Track quality 100.0 %
Test CRC 87B5135B
Copy CRC 87B5135B
Accurately ripped (confidence 11) [25236F94]
Copy OK

Track 5

Filename R:\Pedro\05 - Missing (Amplified Heart Album Mix).wav

Pre-gap length 0:00:00.02

Peak level 98.0 %
Track quality 100.0 %
Test CRC F905B942
Copy CRC F905B942
Accurately ripped (confidence 11) [A3948A16]
Copy OK

Track 6

Filename R:\Pedro\06 - Missing (Todd Terry Tee's Piece).wav

Pre-gap length 0:00:00.02

Peak level 98.0 %
Track quality 100.0 %
Test CRC 2F910D17
Copy CRC 2F910D17
Accurately ripped (confidence 11) [B0AD4801]
Copy OK

All tracks accurately ripped

No errors occurred

End of status report
REM GENRE Dance 
REM DATE 1995
REM DISCID 4007F606
REM COMMENT "ExactAudioCopy v0.99pb4"
PERFORMER "Everything But The Girl"
TITLE "Missing"
FILE "01 - Missing (Todd Terry Club Mix Blanco-Eternal Radio Edit).wav" WAVE
TRACK 01 AUDIO
TITLE "Missing (Todd Terry Club Mix Blanco-Eternal Radio Edit)"
PERFORMER "Everything But The Girl"
INDEX 01 00:00:00
TRACK 02 AUDIO
TITLE "Missing (Todd Terry Club Mix)"
PERFORMER "Everything But The Girl"
INDEX 00 03:54:40
FILE "02 - Missing (Todd Terry Club Mix).wav" WAVE
INDEX 01 00:00:00
TRACK 03 AUDIO
TITLE "Missing (Rockin' Blue Mix)"
PERFORMER "Everything But The Girl"
INDEX 00 04:56:27
FILE "03 - Missing (Rockin' Blue Mix).wav" WAVE
INDEX 01 00:00:00
TRACK 04 AUDIO
TITLE "Missing (Chris & James Full On Club Mix)"
PERFORMER "Everything But The Girl"
INDEX 00 07:48:00
FILE "04 - Missing (Chris & James Full On Club Mix).wav" WAVE
INDEX 01 00:00:00
TRACK 05 AUDIO
TITLE "Missing (Amplified Heart Album Mix)"
PERFORMER "Everything But The Girl"
INDEX 00 08:36:03
FILE "05 - Missing (Amplified Heart Album Mix).wav" WAVE
INDEX 01 00:00:00
TRACK 06 AUDIO
TITLE "Missing (Todd Terry Tee's Piece)"
PERFORMER "Everything But The Girl"
INDEX 00 04:05:13
FILE "06 - Missing (Todd Terry Tee's Piece).wav" WAVE
INDEX 01 00:00:00

Этот торрент недоступен для скачивания без регистрации, однако доступен по публичной magnet-ссылке (источники с публичных трекеров). Перед использованием ссылки прочтите, пожалуйста Пользовательское соглашение, а также как можно дольше оставайтесь на раздаче! Для того, чтобы скачать сам торрент-файл (который видит больше источников), а также для того, чтобы поблагодарить релизера, вам необходимо зарегистрироваться. Если регистрироваться лень - вы можете также попробовать скачать релиз по нашим партнерским ссылкам ниже. Кроме того, зарегистрированным пользователям не показывается всплывающая реклама при скачивании.

[underver.se].t236582.torrent
Трекер: Зарегистрирован   [ 02.03.2022 16:08 ]  
Статус: проверено (by Бишеп at 02.03.2022 16:08)
Поблагодарили: пока никто не поблагодарил...
Тип торрента: публичный - доступные источники с открытых трекеров: 
Размер: 215 MB (занимает 0.05 DVDR, для записи нужно 1 болванка DVDR/RW)
 
 

Яндекс.Метрика powered by Sphinx


В Н И М А Н И Е
Сайт не распространяет и не хранит электронные версии произведений, а лишь бесплатно и без коммерческой выгоды (не требуя взамен платы,
SMS и т.д.) предоставляет доступ к создаваемому пользователями каталогу ссылок на торрент-файлы, которые содержат только списки хеш-сумм.
Убедительная просьба с жалобами обращаться напрямую к пользователю, разместившему торрент файл.

Вверх