Loading...
Error

(Jazz) Eddie Henderson & Friends - Play The Music Of Amit Golan (2012) [FLAC (Tracks+.Cue), Lossless]

Статистика раздачи
Размер:  383 MB   |    Зарегистрирован:  6 месяцев   |    Скачан:  4 раза

Полного источника не было: 6 месяцев

Сидов:  0  |  0 KB/s  ]   Личеров:  0  |  0 KB/s  ]

* - сиды/пиры с внешних источников

   
 
Автор Сообщение

Бишеп Пол:Муж

04-Мар-2022 12:33

Eddie Henderson & Friends - Play The Music Of Amit Golan

Жанр: Jazz
Год выпуска: 2012
Носитель: CD
Производитель диска: Minton's Records - MR-002
Аудиокодек: FLAC
Тип рипа: Tracks+.CUE
Битрейт аудио: lossless
Продолжительность: 00:58:12


Треклист:
01. Ooshmi (06:33)
02. Boozigad (05:20)
03. Mr. T. (05:10)
04. Carolyn (07:00)
05. T.S.M (05:15)
06. D flat Mood (04:42)
07. One for Blue (07:05)
08. Sari (05:08)
09. Out of the Past (06:13)
10. Somewhere Else (05:40)

Exact Audio Copy V1.3 from 2. September 2016 

EAC extraction logfile from 18. February 2022, 17:14

Eddie Henderson & Friends / Play The Music Of Amit Golan

Used drive : HL-DT-STDVDRAM GH24NSD1 Adapter: 1 ID: 0

Read mode : Secure
Utilize accurate stream : Yes
Defeat audio cache : Yes
Make use of C2 pointers : No

Read offset correction : 6
Overread into Lead-In and Lead-Out : No
Fill up missing offset samples with silence : Yes
Delete leading and trailing silent blocks : No
Null samples used in CRC calculations : Yes
Used interface : Native Win32 interface for Win NT & 2000
Gap handling : Appended to previous track

Used output format : User Defined Encoder
Selected bitrate : 1024 kBit/s
Quality : High
Add ID3 tag : No
Command line compressor : C:\Program Files (x86)\Exact Audio Copy\FLAC\FLAC.EXE
Additional command line options : -V -8 -T "Genre=%genre%" -T "Artist=%artist%" -T "Title=%title%" -T "Album=%albumtitle%" -T "Date=%year%" -T "Tracknumber=%tracknr%" %source% -o %dest%

TOC of the extracted CD

Track | Start | Length | Start sector | End sector
---------------------------------------------------------
1 | 0:00.00 | 6:34.00 | 0 | 29549
2 | 6:34.00 | 5:20.25 | 29550 | 53574
3 | 11:54.25 | 5:10.07 | 53575 | 76831
4 | 17:04.32 | 7:00.07 | 76832 | 108338
5 | 24:04.39 | 5:15.24 | 108339 | 131987
6 | 29:19.63 | 4:42.00 | 131988 | 153137
7 | 34:01.63 | 7:05.49 | 153138 | 185061
8 | 41:07.37 | 5:08.74 | 185062 | 208235
9 | 46:16.36 | 6:15.06 | 208236 | 236366
10 | 52:31.42 | 5:40.62 | 236367 | 261928

Track 1

Filename D:\Music\Musicgate's rips\Eddie Henderson & Friends - Play The Music Of Amit Golan - 2012 (Minton's Records) [CD FLAC]\01. Ooshmi.wav

Pre-gap length 0:00:02.00

Peak level 96.6 %
Extraction speed 1.2 X
Track quality 100.0 %
Test CRC 23B7949F
Copy CRC 23B7949F
Accurately ripped (confidence 1) [9DAF79DD] (AR v2)
Copy OK

Track 2

Filename D:\Music\Musicgate's rips\Eddie Henderson & Friends - Play The Music Of Amit Golan - 2012 (Minton's Records) [CD FLAC]\02. Boozigad.wav

Pre-gap length 0:00:01.00

Peak level 96.6 %
Extraction speed 1.3 X
Track quality 99.9 %
Test CRC 11C7A3AA
Copy CRC 11C7A3AA
Accurately ripped (confidence 1) [8E4E8F25] (AR v2)
Copy OK

Track 3

Filename D:\Music\Musicgate's rips\Eddie Henderson & Friends - Play The Music Of Amit Golan - 2012 (Minton's Records) [CD FLAC]\03. Mr. T.wav

Pre-gap length 0:00:00.25

Peak level 96.6 %
Extraction speed 1.4 X
Track quality 99.9 %
Test CRC 5F0EEFBB
Copy CRC 5F0EEFBB
Accurately ripped (confidence 1) [ECE4D1B6] (AR v2)
Copy OK

Track 4

Filename D:\Music\Musicgate's rips\Eddie Henderson & Friends - Play The Music Of Amit Golan - 2012 (Minton's Records) [CD FLAC]\04. Carolyn.wav

Peak level 96.6 %
Extraction speed 1.7 X
Track quality 100.0 %
Test CRC 8A9C597C
Copy CRC 8A9C597C
Accurately ripped (confidence 1) [72BE7BA5] (AR v2)
Copy OK

Track 5

Filename D:\Music\Musicgate's rips\Eddie Henderson & Friends - Play The Music Of Amit Golan - 2012 (Minton's Records) [CD FLAC]\05. T.S.M.wav

Peak level 96.6 %
Extraction speed 1.8 X
Track quality 100.0 %
Test CRC AC00B30A
Copy CRC AC00B30A
Accurately ripped (confidence 1) [B3798C29] (AR v2)
Copy OK

Track 6

Filename D:\Music\Musicgate's rips\Eddie Henderson & Friends - Play The Music Of Amit Golan - 2012 (Minton's Records) [CD FLAC]\06. D flat Mood.wav

Peak level 96.6 %
Extraction speed 1.9 X
Track quality 100.0 %
Test CRC 4E2CE5A2
Copy CRC 4E2CE5A2
Accurately ripped (confidence 1) [F46077B6] (AR v2)
Copy OK

Track 7

Filename D:\Music\Musicgate's rips\Eddie Henderson & Friends - Play The Music Of Amit Golan - 2012 (Minton's Records) [CD FLAC]\07. One for Blue.wav

Peak level 96.6 %
Extraction speed 2.0 X
Track quality 100.0 %
Test CRC 98980939
Copy CRC 98980939
Accurately ripped (confidence 1) [AAB48029] (AR v2)
Copy OK

Track 8

Filename D:\Music\Musicgate's rips\Eddie Henderson & Friends - Play The Music Of Amit Golan - 2012 (Minton's Records) [CD FLAC]\08. Sari.wav

Peak level 96.6 %
Extraction speed 2.1 X
Track quality 100.0 %
Test CRC 2F134CBD
Copy CRC 2F134CBD
Accurately ripped (confidence 1) [1CE134B6] (AR v2)
Copy OK

Track 9

Filename D:\Music\Musicgate's rips\Eddie Henderson & Friends - Play The Music Of Amit Golan - 2012 (Minton's Records) [CD FLAC]\09. Out of the Past.wav

Pre-gap length 0:00:01.00

Peak level 96.6 %
Extraction speed 2.2 X
Track quality 100.0 %
Test CRC 34F0C879
Copy CRC 34F0C879
Accurately ripped (confidence 1) [86F8CDBD] (AR v2)
Copy OK

Track 10

Filename D:\Music\Musicgate's rips\Eddie Henderson & Friends - Play The Music Of Amit Golan - 2012 (Minton's Records) [CD FLAC]\10. Somewhere Else.wav

Pre-gap length 0:00:01.56

Peak level 96.6 %
Extraction speed 2.3 X
Track quality 100.0 %
Test CRC 62C55A80
Copy CRC 62C55A80
Accurately ripped (confidence 1) [55E02817] (AR v2)
Copy OK

All tracks accurately ripped

No errors occurred

End of status report

---- CUETools DB Plugin V2.1.6

[CTDB TOCID: Oes27WhaAkuY86B5jjkZgWVJ2z0-] found
Submit result: Oes27WhaAkuY86B5jjkZgWVJ2z0- has been confirmed
Track | CTDB Status
1 | (1/1) Accurately ripped
2 | (1/1) Accurately ripped
3 | (1/1) Accurately ripped
4 | (1/1) Accurately ripped
5 | (1/1) Accurately ripped
6 | (1/1) Accurately ripped
7 | (1/1) Accurately ripped
8 | (1/1) Accurately ripped
9 | (1/1) Accurately ripped
10 | (1/1) Accurately ripped

==== Log checksum 5D3CD2A630608C57F0C8B7677E5FC4500DE95CFCFCAE555C0E49AD0203E96C86 ====
REM GENRE "Post Bop" 
REM DATE 2012
REM DISCID 8B0DA40A
REM COMMENT "ExactAudioCopy v1.3"
PERFORMER "Eddie Henderson & Friends"
TITLE "Play The Music Of Amit Golan"
REM COMPOSER ""
FILE "01. Ooshmi.wav" WAVE
TRACK 01 AUDIO
TITLE "Ooshmi"
PERFORMER "Eddie Henderson & Friends"
REM COMPOSER ""
INDEX 01 00:00:00
TRACK 02 AUDIO
TITLE "Boozigad"
PERFORMER "Eddie Henderson & Friends"
REM COMPOSER ""
INDEX 00 06:33:00
FILE "02. Boozigad.wav" WAVE
INDEX 01 00:00:00
TRACK 03 AUDIO
TITLE "Mr. T"
PERFORMER "Eddie Henderson & Friends"
REM COMPOSER ""
INDEX 00 05:20:00
FILE "03. Mr. T.wav" WAVE
INDEX 01 00:00:00
FILE "04. Carolyn.wav" WAVE
TRACK 04 AUDIO
TITLE "Carolyn"
PERFORMER "Eddie Henderson & Friends"
REM COMPOSER ""
INDEX 01 00:00:00
FILE "05. T.S.M.wav" WAVE
TRACK 05 AUDIO
TITLE "T.S.M"
PERFORMER "Eddie Henderson & Friends"
REM COMPOSER ""
INDEX 01 00:00:00
FILE "06. D flat Mood.wav" WAVE
TRACK 06 AUDIO
TITLE "D flat Mood"
PERFORMER "Eddie Henderson & Friends"
REM COMPOSER ""
INDEX 01 00:00:00
FILE "07. One for Blue.wav" WAVE
TRACK 07 AUDIO
TITLE "One for Blue"
PERFORMER "Eddie Henderson & Friends"
REM COMPOSER ""
INDEX 01 00:00:00
FILE "08. Sari.wav" WAVE
TRACK 08 AUDIO
TITLE "Sari"
PERFORMER "Eddie Henderson & Friends"
REM COMPOSER ""
INDEX 01 00:00:00
TRACK 09 AUDIO
TITLE "Out of the Past"
PERFORMER "Eddie Henderson & Friends"
REM COMPOSER ""
INDEX 00 05:07:74
FILE "09. Out of the Past.wav" WAVE
INDEX 01 00:00:00
TRACK 10 AUDIO
TITLE "Somewhere Else"
PERFORMER "Eddie Henderson & Friends"
REM COMPOSER ""
INDEX 00 06:13:25
FILE "10. Somewhere Else.wav" WAVE
INDEX 01 00:00:00

Этот торрент недоступен для скачивания без регистрации, однако доступен по публичной magnet-ссылке (источники с публичных трекеров). Перед использованием ссылки прочтите, пожалуйста Пользовательское соглашение, а также как можно дольше оставайтесь на раздаче! Для того, чтобы скачать сам торрент-файл (который видит больше источников), а также для того, чтобы поблагодарить релизера, вам необходимо зарегистрироваться. Если регистрироваться лень - вы можете также попробовать скачать релиз по нашим партнерским ссылкам ниже. Кроме того, зарегистрированным пользователям не показывается всплывающая реклама при скачивании.

[underver.se].t236676.torrent
Трекер: Зарегистрирован   [ 04.03.2022 12:33 ]  
Статус: проверено (by Бишеп at 04.03.2022 12:34)
Поблагодарили: пока никто не поблагодарил...
Тип торрента: публичный - доступные источники с открытых трекеров: 
Размер: 383 MB (занимает 0.09 DVDR, для записи нужно 1 болванка DVDR/RW)
 
 

Яндекс.Метрика powered by Sphinx


В Н И М А Н И Е
Сайт не распространяет и не хранит электронные версии произведений, а лишь бесплатно и без коммерческой выгоды (не требуя взамен платы,
SMS и т.д.) предоставляет доступ к создаваемому пользователями каталогу ссылок на торрент-файлы, которые содержат только списки хеш-сумм.
Убедительная просьба с жалобами обращаться напрямую к пользователю, разместившему торрент файл.

Вверх