Loading...
Error

(Contemporary Jazz) Azmari - Sama'i (2021) [FLAC (Tracks+.Cue), Lossless]

Статистика раздачи
Размер:  338 MB   |    Зарегистрирован:  7 месяцев   |    Скачан:  4 раза

Полного источника не было: 7 дней

Сидов:  0  |  0 KB/s  ]   Личеров:  0  |  0 KB/s  ]

* - сиды/пиры с внешних источников

   
 
Автор Сообщение

Бишеп Пол:Муж

04-Мар-2022 14:09

Azmari - Samā'ī

Жанр: Contemporary Jazz
Год выпуска: 2021
Носитель: CD
Производитель диска: Sdban Ultra - SDBANUCD16
Аудиокодек: FLAC
Тип рипа: Tracks+.CUE
Битрейт аудио: lossless
Продолжительность: 00:43:40


Треклист:
01. Zegiyitwali (02:00)
02. Cosmic masadāni (04:13)
03. Kamilari (04:36)
04. Kugler (04:56)
05. Tariq al Sahara (05:35)
06. Azalaï (05:22)
07. Fat ari (05:39)
08. Kadiköy (09:04)
09. Doni (02:18)

Exact Audio Copy V1.6 from 23. October 2020 

EAC extraction logfile from 4. April 2021, 18:39

Azmari / Samā'ī

Used drive : ATAPI iHAS124 F Adapter: 1 ID: 0

Read mode : Secure
Utilize accurate stream : Yes
Defeat audio cache : Yes
Make use of C2 pointers : No

Read offset correction : 6
Overread into Lead-In and Lead-Out : No
Fill up missing offset samples with silence : Yes
Delete leading and trailing silent blocks : No
Null samples used in CRC calculations : Yes
Used interface : Native Win32 interface for Win NT & 2000
Gap handling : Appended to previous track

Used output format : User Defined Encoder
Selected bitrate : 1024 kBit/s
Quality : High
Add ID3 tag : No
Command line compressor : C:\Program Files (x86)\Exact Audio Copy\Flac\flac.exe
Additional command line options : -8 -V -T "ARTIST=%artist%" -T "TITLE=%title%" -T "ALBUM=%albumtitle%" -T "DATE=%year%" -T "TRACKNUMBER=%tracknr%" -T "GENRE=%genre%" -T "PERFORMER=%albuminterpret%" -T "COMPOSER=%composer%" %haslyrics%--tag-from-file=LYRICS="%lyricsfile%"%haslyrics% -T "ALBUMARTIST=%albumartist%" -T "DISCNUMBER=%cdnumber%" -T "TOTALDISCS=%totalcds%" -T "TOTALTRACKS=%numtracks%" -T "COMMENT=%comment%" %source% -o %dest%

TOC of the extracted CD

Track | Start | Length | Start sector | End sector
---------------------------------------------------------
1 | 0:00.00 | 1:59.38 | 0 | 8962
2 | 1:59.38 | 4:12.25 | 8963 | 27887
3 | 6:11.63 | 4:35.50 | 27888 | 48562
4 | 10:47.38 | 4:55.59 | 48563 | 70746
5 | 15:43.22 | 5:34.38 | 70747 | 95834
6 | 21:17.60 | 5:21.09 | 95835 | 119918
7 | 26:38.69 | 5:38.70 | 119919 | 145338
8 | 32:17.64 | 9:03.47 | 145339 | 186110
9 | 41:21.36 | 2:17.73 | 186111 | 196458

Track 1

Filename C:\Azmari - Samā'ī (2021) - CD FLAC {Sdban Ultra, SDBANUCD16}\01 - Zegiyitwali.wav

Pre-gap length 0:00:02.00

Peak level 96.3 %
Extraction speed 3.2 X
Track quality 99.9 %
Test CRC 7A0978A0
Copy CRC 7A0978A0
Track not present in AccurateRip database
Copy OK

Track 2

Filename C:\Azmari - Samā'ī (2021) - CD FLAC {Sdban Ultra, SDBANUCD16}\02 - Cosmic Masadāni.wav

Peak level 97.2 %
Extraction speed 4.6 X
Track quality 99.9 %
Test CRC B989859F
Copy CRC B989859F
Track not present in AccurateRip database
Copy OK

Track 3

Filename C:\Azmari - Samā'ī (2021) - CD FLAC {Sdban Ultra, SDBANUCD16}\03 - Kamilari.wav

Pre-gap length 0:00:01.06

Peak level 96.5 %
Extraction speed 6.1 X
Track quality 100.0 %
Test CRC E5CC1420
Copy CRC E5CC1420
Track not present in AccurateRip database
Copy OK

Track 4

Filename C:\Azmari - Samā'ī (2021) - CD FLAC {Sdban Ultra, SDBANUCD16}\04 - Kugler.wav

Pre-gap length 0:00:01.22

Peak level 97.7 %
Extraction speed 5.7 X
Track quality 99.9 %
Test CRC 00900279
Copy CRC 00900279
Track not present in AccurateRip database
Copy OK

Track 5

Filename C:\Azmari - Samā'ī (2021) - CD FLAC {Sdban Ultra, SDBANUCD16}\05 - Tariq Al Sahara.wav

Pre-gap length 0:00:01.72

Peak level 96.9 %
Extraction speed 7.4 X
Track quality 100.0 %
Test CRC 2FB24166
Copy CRC 2FB24166
Track not present in AccurateRip database
Copy OK

Track 6

Filename C:\Azmari - Samā'ī (2021) - CD FLAC {Sdban Ultra, SDBANUCD16}\06 - Azalaï.wav

Pre-gap length 0:00:01.52

Peak level 96.6 %
Extraction speed 8.0 X
Track quality 100.0 %
Test CRC B2FFDA24
Copy CRC B2FFDA24
Track not present in AccurateRip database
Copy OK

Track 7

Filename C:\Azmari - Samā'ī (2021) - CD FLAC {Sdban Ultra, SDBANUCD16}\07 - Fat Ari.wav

Pre-gap length 0:00:01.32

Peak level 96.6 %
Extraction speed 8.6 X
Track quality 100.0 %
Test CRC 0265682C
Copy CRC 0265682C
Track not present in AccurateRip database
Copy OK

Track 8

Filename C:\Azmari - Samā'ī (2021) - CD FLAC {Sdban Ultra, SDBANUCD16}\08 - Kadiköy.wav

Peak level 96.5 %
Extraction speed 9.6 X
Track quality 100.0 %
Test CRC 0E54D8A8
Copy CRC 0E54D8A8
Track not present in AccurateRip database
Copy OK

Track 9

Filename C:\Azmari - Samā'ī (2021) - CD FLAC {Sdban Ultra, SDBANUCD16}\09 - Doni.wav

Pre-gap length 0:00:01.22

Peak level 96.5 %
Extraction speed 8.4 X
Track quality 100.0 %
Test CRC 2FE5AD25
Copy CRC 2FE5AD25
Track not present in AccurateRip database
Copy OK

None of the tracks are present in the AccurateRip database

No errors occurred

End of status report

---- CUETools DB Plugin V2.1.6

[CTDB TOCID: K1FGO2dNFmd7QLhyBw_NMEZLHsA-] found
Submit result: K1FGO2dNFmd7QLhyBw_NMEZLHsA- has been confirmed
Track | CTDB Status
1 | (1/1) Accurately ripped
2 | (1/1) Accurately ripped
3 | (1/1) Accurately ripped
4 | (1/1) Accurately ripped
5 | (1/1) Accurately ripped
6 | (1/1) Accurately ripped
7 | (1/1) Accurately ripped
8 | (1/1) Accurately ripped
9 | (1/1) Accurately ripped

==== Log checksum 201832BA59A17C3E886BDE67B1C5D47FE36243F6931420D4239A4F8582F8F0A8 ====
REM GENRE "Ethio-Jazz" 
REM DATE 2021
REM DISCID 790A3B09
REM COMMENT "ExactAudioCopy v1.6"
PERFORMER "Azmari"
TITLE "Samā'ī"
FILE "01. Zegiyitwali.wav" WAVE
TRACK 01 AUDIO
TITLE "Zegiyitwali"
PERFORMER "Azmari"
ISRC BEN582001066
INDEX 01 00:00:00
FILE "02. Cosmic masadāni.wav" WAVE
TRACK 02 AUDIO
TITLE "Cosmic masadāni"
PERFORMER "Azmari"
ISRC BEN582001067
INDEX 01 00:00:00
TRACK 03 AUDIO
TITLE "Kamilari"
PERFORMER "Azmari"
ISRC BEN582001068
INDEX 00 04:11:20
FILE "03. Kamilari.wav" WAVE
INDEX 01 00:00:00
TRACK 04 AUDIO
TITLE "Kugler"
PERFORMER "Azmari"
ISRC BEN582001069
INDEX 00 04:34:33
FILE "04. Kugler.wav" WAVE
INDEX 01 00:00:00
TRACK 05 AUDIO
TITLE "Tariq al Sahara"
PERFORMER "Azmari"
ISRC BEN582001070
INDEX 00 04:54:05
FILE "05. Tariq al Sahara.wav" WAVE
INDEX 01 00:00:00
TRACK 06 AUDIO
TITLE "Azalaï"
PERFORMER "Azmari"
ISRC BEN582001071
INDEX 00 05:32:74
FILE "06. Azalaï.wav" WAVE
INDEX 01 00:00:00
TRACK 07 AUDIO
TITLE "Fat ari"
PERFORMER "Azmari"
ISRC BEN582001072
INDEX 00 05:19:60
FILE "07. Fat ari.wav" WAVE
INDEX 01 00:00:00
FILE "08. Kadiköy.wav" WAVE
TRACK 08 AUDIO
TITLE "Kadiköy"
PERFORMER "Azmari"
ISRC BEN582001073
INDEX 01 00:00:00
TRACK 09 AUDIO
TITLE "Doni"
PERFORMER "Azmari"
ISRC BEN582001074
INDEX 00 09:02:30
FILE "09. Doni.wav" WAVE
INDEX 01 00:00:00

Этот торрент недоступен для скачивания без регистрации, однако доступен по публичной magnet-ссылке (источники с публичных трекеров). Перед использованием ссылки прочтите, пожалуйста Пользовательское соглашение, а также как можно дольше оставайтесь на раздаче! Для того, чтобы скачать сам торрент-файл (который видит больше источников), а также для того, чтобы поблагодарить релизера, вам необходимо зарегистрироваться. Если регистрироваться лень - вы можете также попробовать скачать релиз по нашим партнерским ссылкам ниже. Кроме того, зарегистрированным пользователям не показывается всплывающая реклама при скачивании.

[underver.se].t236679.torrent
Трекер: Зарегистрирован   [ 04.03.2022 14:09 ]  
Статус: проверено (by Бишеп at 04.03.2022 14:09)
Поблагодарили: пока никто не поблагодарил...
Тип торрента: публичный - доступные источники с открытых трекеров: 
Размер: 338 MB (занимает 0.08 DVDR, для записи нужно 1 болванка DVDR/RW)
 
 

Яндекс.Метрика powered by Sphinx


В Н И М А Н И Е
Сайт не распространяет и не хранит электронные версии произведений, а лишь бесплатно и без коммерческой выгоды (не требуя взамен платы,
SMS и т.д.) предоставляет доступ к создаваемому пользователями каталогу ссылок на торрент-файлы, которые содержат только списки хеш-сумм.
Убедительная просьба с жалобами обращаться напрямую к пользователю, разместившему торрент файл.

Вверх