Loading...
Error

(Fusion) European Jazz Trio - Bolero (2007) [FLAC (Image+.CUE), Lossless]

Статистика раздачи
Размер:  374 MB   |    Зарегистрирован:  6 месяцев   |    Скачан:  5 раз

Полного источника не было: 2 месяца 1 день

Сидов:  0  |  0 KB/s  ]   Личеров:  0  |  0 KB/s  ]

* - сиды/пиры с внешних источников

   
 
Автор Сообщение

Бишеп Пол:Муж

04-Мар-2022 14:27

European Jazz Trio - Bolero

Жанр: Fusion
Год выпуска: 2007
Носитель: CD
Производитель диска: M & I - MYCJ-30439
Аудиокодек: FLAC
Тип рипа: Image+.CUE
Битрейт аудио: lossless
Продолжительность: 00:58:11


Треклист:
01. Nocturne F Minor (05:27)
02. Bolero (06:15)
03. The Swan (06:06)
04. Rhapsody In Blue (05:46)
05. Apres Un Reve (05:23)
06. Polonaise In A♭ (04:21)
07. Symphony No. 3 In F (05:03)
08. Piano Concert 23 (04:23)
09. Romeo And Juliet (06:03)
10. Waltz In A-flat (04:59)
11. Sheep May Safely Graze (04:21)

Exact Audio Copy V1.3 from 2. September 2016 

Отчёт EAC об извлечении, выполненном 25. февраля 2022, 0:32

European Jazz Trio / Bolero

Дисковод: PLEXTOR DVDR PX-755A Adapter: 1 ID: 0

Режим чтения : Достоверность
Использование точного потока : Да
Отключение кэша аудио : Да
Использование указателей C2 : Нет

Коррекция смещения при чтении : 30
Способность читать области Lead-in и Lead-out : Нет
Заполнение пропущенных сэмплов тишиной : Да
Удаление блоков с тишиной в начале и конце : Нет
При вычислениях CRC использовались нулевые сэмплы : Да
Интерфейс : Встроенный Win32-интерфейс для Win NT/2000

Выходной формат : Пользовательский кодировщик
Выбранный битрейт : 128 kBit/s
Качество : Высокий
Добавление ID3-тега : Нет
Утилита сжатия : C:\Program Files (x86)\Exact Audio Copy\Flac\flac.exe
Дополнительные параметры : -V -8 -T "Date=%year%" -T "Genre=%genre%" %source%

TOC извлечённого CD

Трек | Старт | Длительность | Начальный сектор | Конечный сектор
---------------------------------------------------------------------
1 | 0:00.00 | 5:27.13 | 0 | 24537
2 | 5:27.13 | 6:15.45 | 24538 | 52707
3 | 11:42.58 | 6:06.11 | 52708 | 80168
4 | 17:48.69 | 5:46.10 | 80169 | 106128
5 | 23:35.04 | 5:23.44 | 106129 | 130397
6 | 28:58.48 | 4:21.37 | 130398 | 150009
7 | 33:20.10 | 5:03.61 | 150010 | 172795
8 | 38:23.71 | 4:23.21 | 172796 | 192541
9 | 42:47.17 | 6:03.23 | 192542 | 219789
10 | 48:50.40 | 4:59.38 | 219790 | 242252
11 | 53:50.03 | 4:21.52 | 242253 | 261879

Характеристики диапазона извлечения и сообщения об ошибках

Выбранный диапазон

Имя файла D:\РАЗДАЧА\European Jazz Trio - Bolero - 2008 [Japan]\European Jazz Trio - Bolero.wav

Пиковый уровень 98.8 %
Скорость извлечения 8.2 X
Качество диапазона 100.0 %
CRC теста CBFB3EAC
CRC копии CBFB3EAC
Копирование... OK

Ошибок не произошло

AccurateRip: сводка
Трек 1 : извлечено точно (доверие 13) [D06B0C1C] (AR v2)
Трек 2 : извлечено точно (доверие 13) [035FDAAE] (AR v2)
Трек 3 : извлечено точно (доверие 13) [5065FCDD] (AR v2)
Трек 4 : извлечено точно (доверие 12) [A4CD7A95] (AR v2)
Трек 5 : извлечено точно (доверие 12) [CA7DAF5D] (AR v2)
Трек 6 : извлечено точно (доверие 12) [7F648632] (AR v2)
Трек 7 : извлечено точно (доверие 13) [AF686D3D] (AR v2)
Трек 8 : извлечено точно (доверие 13) [B4128A28] (AR v2)
Трек 9 : извлечено точно (доверие 12) [7761FA97] (AR v2)
Трек 10 : извлечено точно (доверие 12) [16D4E3BA] (AR v2)
Трек 11 : извлечено точно (доверие 12) [14AF5899] (AR v2)
Все треки извлечены точно

Конец отчёта

---- CUETools DB Plugin V2.1.6

[CTDB TOCID: xd3fe6fqn4leaDi9INGFKqTAF5A-] found
Submit result: xd3fe6fqn4leaDi9INGFKqTAF5A- has been confirmed
Track | CTDB Status
1 | (32/32) Accurately ripped
2 | (32/32) Accurately ripped
3 | (32/32) Accurately ripped
4 | (32/32) Accurately ripped
5 | (32/32) Accurately ripped
6 | (32/32) Accurately ripped
7 | (32/32) Accurately ripped
8 | (31/32) Accurately ripped
9 | (32/32) Accurately ripped
10 | (32/32) Accurately ripped
11 | (31/32) Accurately ripped

==== Контрольная сумма отчёта 03B8A6D45E40A421BF336F8DDAA0FD40FD0504DE731882C103B79BEFC4E6F821 ====
REM GENRE Jazz 
REM DATE 2008
REM DISCID 7A0DA30B
REM COMMENT "ExactAudioCopy v1.3"
PERFORMER "European Jazz Trio"
TITLE "Bolero"
REM COMPOSER ""
FILE "European Jazz Trio - Bolero.flac" WAVE
TRACK 01 AUDIO
TITLE "Nocturne F Minor"
PERFORMER "European Jazz Trio"
REM COMPOSER "Chopin"
INDEX 01 00:00:00
TRACK 02 AUDIO
TITLE "Bolero"
PERFORMER "European Jazz Trio"
REM COMPOSER "Ravel"
INDEX 01 05:27:13
TRACK 03 AUDIO
TITLE "The Swan"
PERFORMER "European Jazz Trio"
REM COMPOSER "Camille Saint-Saens"
INDEX 00 11:39:09
INDEX 01 11:42:58
TRACK 04 AUDIO
TITLE "Rhapsody In Blue"
PERFORMER "European Jazz Trio"
REM COMPOSER "George Gershwin"
INDEX 00 17:46:44
INDEX 01 17:48:69
TRACK 05 AUDIO
TITLE "Apres Un Reve"
PERFORMER "European Jazz Trio"
REM COMPOSER "Gabriel Faure"
INDEX 00 23:31:30
INDEX 01 23:35:04
TRACK 06 AUDIO
TITLE "Polonaise In A."
PERFORMER "European Jazz Trio"
REM COMPOSER "Chopin"
INDEX 00 28:56:24
INDEX 01 28:58:48
TRACK 07 AUDIO
TITLE "Symphony No. 3 In F"
PERFORMER "European Jazz Trio"
REM COMPOSER "Brahms"
INDEX 00 33:18:55
INDEX 01 33:20:10
TRACK 08 AUDIO
TITLE "Piano Concert 23"
PERFORMER "European Jazz Trio"
REM COMPOSER "Mozart"
INDEX 00 38:21:57
INDEX 01 38:23:71
TRACK 09 AUDIO
TITLE "Romeo And Juliet"
PERFORMER "European Jazz Trio"
REM COMPOSER "Tchaikovsky"
INDEX 00 42:45:29
INDEX 01 42:47:17
TRACK 10 AUDIO
TITLE "Waltz In A."
PERFORMER "European Jazz Trio"
REM COMPOSER "Chopin"
INDEX 01 48:50:40
TRACK 11 AUDIO
TITLE "Sheep May Safely Graze"
PERFORMER "European Jazz Trio"
REM COMPOSER "Bach"
INDEX 00 53:47:25
INDEX 01 53:50:03

Этот торрент недоступен для скачивания без регистрации, однако доступен по публичной magnet-ссылке (источники с публичных трекеров). Перед использованием ссылки прочтите, пожалуйста Пользовательское соглашение, а также как можно дольше оставайтесь на раздаче! Для того, чтобы скачать сам торрент-файл (который видит больше источников), а также для того, чтобы поблагодарить релизера, вам необходимо зарегистрироваться. Если регистрироваться лень - вы можете также попробовать скачать релиз по нашим партнерским ссылкам ниже. Кроме того, зарегистрированным пользователям не показывается всплывающая реклама при скачивании.

[underver.se].t236680.torrent
Трекер: Зарегистрирован   [ 04.03.2022 14:27 ]  
Статус: проверено (by Бишеп at 04.03.2022 14:28)
Поблагодарили: пока никто не поблагодарил...
Тип торрента: публичный - доступные источники с открытых трекеров: 
Размер: 374 MB (занимает 0.08 DVDR, для записи нужно 1 болванка DVDR/RW)
 
 

Яндекс.Метрика powered by Sphinx


В Н И М А Н И Е
Сайт не распространяет и не хранит электронные версии произведений, а лишь бесплатно и без коммерческой выгоды (не требуя взамен платы,
SMS и т.д.) предоставляет доступ к создаваемому пользователями каталогу ссылок на торрент-файлы, которые содержат только списки хеш-сумм.
Убедительная просьба с жалобами обращаться напрямую к пользователю, разместившему торрент файл.

Вверх