Loading...
Error

(Contemporary Jazz) Donna Lee Saxophone Quartet - Four Odd (2005) [FLAC (Tracks+.Cue), Lossless]

Статистика раздачи
Размер:  329 MB   |    Зарегистрирован:  6 месяцев   |    Скачан:  12 раз

Полного источника не было: 2 дня 18 часов

Сидов:  0  |  0 KB/s  ]   Личеров:  0  |  0 KB/s  ]

* - сиды/пиры с внешних источников

   
 
Автор Сообщение

Бишеп Пол:Муж

05-Мар-2022 15:25

Donna Lee Saxophone Quartet - Four Odd

Жанр: Contemporary Jazz
Год выпуска: 2005
Носитель: CD
Производитель диска: Zivaldo Records - CD 012005
Аудиокодек: FLAC
Тип рипа: Tracks+.CUE
Битрейт аудио: lossless
Продолжительность: 00:55:59


Треклист:
01. Four Odd (06:31)
02. Crossreference (04:50)
03. Ballad For G (02:42)
04. Footprints (06:18)
05. Boogie Stop Shuffle (03:14)
06. Evident (02:20)
07. Wights Waits For Weights (08:49)
08. Lush Life (06:06)
09. Summertime (05:09)
10. Green Lobster Dream (07:50)
11. Conchology (02:10)

Exact Audio Copy V1.0 beta 3 from 29. August 2011 

EAC extraction logfile from 27. February 2022, 13:35

Donna Lee Saxophone Quartet / Four Odd

Used drive : TSSTcorpCD/DVDW SH-S162L Adapter: 0 ID: 0

Read mode : Secure
Utilize accurate stream : Yes
Defeat audio cache : Yes
Make use of C2 pointers : No

Read offset correction : 6
Overread into Lead-In and Lead-Out : No
Fill up missing offset samples with silence : Yes
Delete leading and trailing silent blocks : No
Null samples used in CRC calculations : Yes
Used interface : Native Win32 interface for Win NT & 2000
Gap handling : Appended to previous track

Used output format : User Defined Encoder
Selected bitrate : 128 kBit/s
Quality : High
Add ID3 tag : No
Command line compressor : C:\Program Files (x86)\Exact Audio Copy\FLAC\FLAC.EXE
Additional command line options : -6 -V -T "ARTIST=%artist%" -T "TITLE=%title%" -T "ALBUM=%albumtitle%" -T "DATE=%year%" -T "TRACKNUMBER=%tracknr%" -T "GENRE=%genre%" -T "COMMENT=%comment%" -T "BAND=%albuminterpret%" -T "ALBUMARTIST=%albuminterpret%" -T "COMPOSER=%composer%" %haslyrics%--tag-from-file=LYRICS="%lyricsfile%"%haslyrics% -T "DISCNUMBER=%cdnumber%" -T "TOTALDISCS=%totalcds%" -T "TOTALTRACKS=%numtracks%" %hascover%--picture="%coverfile%"%hascover% %source% -o %dest%

TOC of the extracted CD

Track | Start | Length | Start sector | End sector
---------------------------------------------------------
1 | 0:00.00 | 6:31.46 | 0 | 29370
2 | 6:31.46 | 4:50.33 | 29371 | 51153
3 | 11:22.04 | 2:42.70 | 51154 | 63373
4 | 14:04.74 | 6:18.48 | 63374 | 91771
5 | 20:23.47 | 3:14.15 | 91772 | 106336
6 | 23:37.62 | 2:20.70 | 106337 | 116906
7 | 25:58.57 | 8:49.33 | 116907 | 156614
8 | 34:48.15 | 6:06.03 | 156615 | 184067
9 | 40:54.18 | 5:09.73 | 184068 | 207315
10 | 46:04.16 | 7:50.12 | 207316 | 242577
11 | 53:54.28 | 2:10.27 | 242578 | 252354

Track 1

Filename D:\Temp\Donna Lee Saxophone Quartet - Four Odd (2005)\01 - Four Odd.wav

Pre-gap length 0:00:02.00

Peak level 98.9 %
Extraction speed 5.4 X
Track quality 100.0 %
Test CRC EE50BF37
Copy CRC EE50BF37
Track not present in AccurateRip database
Copy OK

Track 2

Filename D:\Temp\Donna Lee Saxophone Quartet - Four Odd (2005)\02 - Crossreference.wav

Peak level 98.9 %
Extraction speed 5.9 X
Track quality 100.0 %
Test CRC 9637BA4B
Copy CRC 9637BA4B
Track not present in AccurateRip database
Copy OK

Track 3

Filename D:\Temp\Donna Lee Saxophone Quartet - Four Odd (2005)\03 - Ballad for G..wav

Peak level 98.9 %
Extraction speed 5.7 X
Track quality 100.0 %
Test CRC 8A3BADE3
Copy CRC 8A3BADE3
Track not present in AccurateRip database
Copy OK

Track 4

Filename D:\Temp\Donna Lee Saxophone Quartet - Four Odd (2005)\04 - Footprints.wav

Peak level 98.9 %
Extraction speed 6.9 X
Track quality 100.0 %
Test CRC C3C99823
Copy CRC C3C99823
Track not present in AccurateRip database
Copy OK

Track 5

Filename D:\Temp\Donna Lee Saxophone Quartet - Four Odd (2005)\05 - Boogie Stop Shuffle.wav

Peak level 98.8 %
Extraction speed 5.7 X
Track quality 99.9 %
Test CRC 07CA9848
Copy CRC 07CA9848
Track not present in AccurateRip database
Copy OK

Track 6

Filename D:\Temp\Donna Lee Saxophone Quartet - Four Odd (2005)\06 - Evident.wav

Peak level 98.9 %
Extraction speed 6.4 X
Track quality 100.0 %
Test CRC 494C39F8
Copy CRC 494C39F8
Track not present in AccurateRip database
Copy OK

Track 7

Filename D:\Temp\Donna Lee Saxophone Quartet - Four Odd (2005)\07 - Wights Waits for Weights.wav

Peak level 98.9 %
Extraction speed 8.1 X
Track quality 100.0 %
Test CRC 589EAA32
Copy CRC 589EAA32
Track not present in AccurateRip database
Copy OK

Track 8

Filename D:\Temp\Donna Lee Saxophone Quartet - Four Odd (2005)\08 - Lush Life.wav

Peak level 98.8 %
Extraction speed 8.4 X
Track quality 100.0 %
Test CRC BD7EE34B
Copy CRC BD7EE34B
Track not present in AccurateRip database
Copy OK

Track 9

Filename D:\Temp\Donna Lee Saxophone Quartet - Four Odd (2005)\09 - Summertime.wav

Peak level 98.8 %
Extraction speed 8.7 X
Track quality 100.0 %
Test CRC A1C0E665
Copy CRC A1C0E665
Track not present in AccurateRip database
Copy OK

Track 10

Filename D:\Temp\Donna Lee Saxophone Quartet - Four Odd (2005)\10 - Green Lobster Dream.wav

Peak level 98.9 %
Extraction speed 9.5 X
Track quality 100.0 %
Test CRC 98749148
Copy CRC 98749148
Track not present in AccurateRip database
Copy OK

Track 11

Filename D:\Temp\Donna Lee Saxophone Quartet - Four Odd (2005)\11 - Conchology.wav

Peak level 98.8 %
Extraction speed 8.1 X
Track quality 100.0 %
Test CRC EF5C815F
Copy CRC EF5C815F
Track not present in AccurateRip database
Copy OK

None of the tracks are present in the AccurateRip database

No errors occurred

End of status report

==== Log checksum FC9412579A04E0B2776C4C98AC60EF3108C685F774EA63F9DCADBECED7E6839F ====
REM GENRE Jazz 
REM DATE 2005
REM DISCID 990D240B
REM COMMENT "ExactAudioCopy v1.0b3"
PERFORMER "Donna Lee Saxophone Quartet"
TITLE "Four Odd"
FILE "01 - Four Odd.wav" WAVE
TRACK 01 AUDIO
TITLE "Four Odd"
PERFORMER "Donna Lee Saxophone Quartet"
ISRC 000000000000
FLAGS DCP
INDEX 01 00:00:00
FILE "02 - Crossreference.wav" WAVE
TRACK 02 AUDIO
TITLE "Crossreference"
PERFORMER "Donna Lee Saxophone Quartet"
ISRC 000000000000
FLAGS DCP
INDEX 01 00:00:00
FILE "03 - Ballad for G..wav" WAVE
TRACK 03 AUDIO
TITLE "Ballad for G."
PERFORMER "Donna Lee Saxophone Quartet"
ISRC 000000000000
FLAGS DCP
INDEX 01 00:00:00
FILE "04 - Footprints.wav" WAVE
TRACK 04 AUDIO
TITLE "Footprints"
PERFORMER "Donna Lee Saxophone Quartet"
ISRC 000000000000
FLAGS DCP
INDEX 01 00:00:00
FILE "05 - Boogie Stop Shuffle.wav" WAVE
TRACK 05 AUDIO
TITLE "Boogie Stop Shuffle"
PERFORMER "Donna Lee Saxophone Quartet"
ISRC 000000000000
FLAGS DCP
INDEX 01 00:00:00
FILE "06 - Evident.wav" WAVE
TRACK 06 AUDIO
TITLE "Evident"
PERFORMER "Donna Lee Saxophone Quartet"
ISRC 000000000000
FLAGS DCP
INDEX 01 00:00:00
FILE "07 - Wights Waits for Weights.wav" WAVE
TRACK 07 AUDIO
TITLE "Wights Waits for Weights"
PERFORMER "Donna Lee Saxophone Quartet"
ISRC 000000000000
FLAGS DCP
INDEX 01 00:00:00
FILE "08 - Lush Life.wav" WAVE
TRACK 08 AUDIO
TITLE "Lush Life"
PERFORMER "Donna Lee Saxophone Quartet"
ISRC 000000000000
FLAGS DCP
INDEX 01 00:00:00
FILE "09 - Summertime.wav" WAVE
TRACK 09 AUDIO
TITLE "Summertime"
PERFORMER "Donna Lee Saxophone Quartet"
ISRC 000000000000
FLAGS DCP
INDEX 01 00:00:00
FILE "10 - Green Lobster Dream.wav" WAVE
TRACK 10 AUDIO
TITLE "Green Lobster Dream"
PERFORMER "Donna Lee Saxophone Quartet"
ISRC 000000000000
FLAGS DCP
INDEX 01 00:00:00
FILE "11 - Conchology.wav" WAVE
TRACK 11 AUDIO
TITLE "Conchology"
PERFORMER "Donna Lee Saxophone Quartet"
ISRC 000000000000
FLAGS DCP
INDEX 01 00:00:00

Этот торрент недоступен для скачивания без регистрации, однако доступен по публичной magnet-ссылке (источники с публичных трекеров). Перед использованием ссылки прочтите, пожалуйста Пользовательское соглашение, а также как можно дольше оставайтесь на раздаче! Для того, чтобы скачать сам торрент-файл (который видит больше источников), а также для того, чтобы поблагодарить релизера, вам необходимо зарегистрироваться. Если регистрироваться лень - вы можете также попробовать скачать релиз по нашим партнерским ссылкам ниже. Кроме того, зарегистрированным пользователям не показывается всплывающая реклама при скачивании.

[underver.se].t236738.torrent
Трекер: Зарегистрирован   [ 05.03.2022 15:25 ]  
Статус: проверено (by Бишеп at 05.03.2022 15:25)
Поблагодарили: пока никто не поблагодарил...
Тип торрента: публичный - доступные источники с открытых трекеров: 
Размер: 329 MB (занимает 0.07 DVDR, для записи нужно 1 болванка DVDR/RW)
 
 

Яндекс.Метрика powered by Sphinx


В Н И М А Н И Е
Сайт не распространяет и не хранит электронные версии произведений, а лишь бесплатно и без коммерческой выгоды (не требуя взамен платы,
SMS и т.д.) предоставляет доступ к создаваемому пользователями каталогу ссылок на торрент-файлы, которые содержат только списки хеш-сумм.
Убедительная просьба с жалобами обращаться напрямую к пользователю, разместившему торрент файл.

Вверх