Loading...
Error

(Progressive Rock) Laughing Stock - Zero Acts 1 & 2 (2021) [FLAC (Tracks+.Cue), Lossless]

Статистика раздачи
Размер:  250 MB   |    Зарегистрирован:  6 месяцев   |    Скачан:  2 раза

Полного источника не было: 1 месяц 21 день

Сидов:  0  |  0 KB/s  ]   Личеров:  0  |  0 KB/s  ]

* - сиды/пиры с внешних источников

   
 
Автор Сообщение

Бишеп Пол:Муж

06-Мар-2022 16:55

Laughing Stock - Zero Acts 1 & 2

Жанр: Progressive Rock
Год выпуска: 2021
Носитель: CD
Производитель диска: Apollon Records: PROG - Arp048Cd
Аудиокодек: FLAC
Тип рипа: Tracks+.CUE
Битрейт аудио: lossless
Продолжительность: 00:48:10


Треклист:
01. Welcome
02. When Darkness Comes
03. Nighttime
04. Imaginary Friend
05. School
06. Child
07. Leave Me Alone
08. My Love Pt I
09. My Love Pt Ii
10. Last Supper
11. Zero
12. Curtain Falls

Exact Audio Copy V1.5 from 20. February 2020 

EAC extraction logfile from 17. January 2022, 16:37

Laughing Stock / Zero Acts 1 & 2

Used drive : ASUS DRW-24D5MT Adapter: 1 ID: 0

Read mode : Secure
Utilize accurate stream : Yes
Defeat audio cache : Yes
Make use of C2 pointers : No

Read offset correction : 6
Overread into Lead-In and Lead-Out : No
Fill up missing offset samples with silence : Yes
Delete leading and trailing silent blocks : No
Null samples used in CRC calculations : Yes
Used interface : Native Win32 interface for Win NT & 2000
Gap handling : Appended to previous track

Used output format : User Defined Encoder
Selected bitrate : 768 kBit/s
Quality : High
Add ID3 tag : No
Command line compressor : C:\Program Files (x86)\Exact Audio Copy\Flac\flac.exe
Additional command line options : -V -8 -T "Genre=%genre%" -T "Artist=%artist%" -T "Title=%title%" -T "Album=%albumtitle%" -T "Date=%year%" -T "Tracknumber=%tracknr%" -T "Comment=%comment%" %source%

TOC of the extracted CD

Track | Start | Length | Start sector | End sector
---------------------------------------------------------
1 | 0:00.00 | 2:27.13 | 0 | 11037
2 | 2:27.13 | 4:38.69 | 11038 | 31956
3 | 7:06.07 | 6:24.57 | 31957 | 60813
4 | 13:30.64 | 4:06.27 | 60814 | 79290
5 | 17:37.16 | 3:33.08 | 79291 | 95273
6 | 21:10.24 | 4:12.22 | 95274 | 114195
7 | 25:22.46 | 4:44.07 | 114196 | 135502
8 | 30:06.53 | 4:04.51 | 135503 | 153853
9 | 34:11.29 | 4:13.22 | 153854 | 172850
10 | 38:24.51 | 3:32.37 | 172851 | 188787
11 | 41:57.13 | 4:31.37 | 188788 | 209149
12 | 46:28.50 | 1:48.35 | 209150 | 217284

Track 1

Filename C:\Users\user\Music\Rips\Laughing Stock\Laughing Stock - 2021 - Zero Acts 1 & 2\01. Welcome.wav

Pre-gap length 0:00:02.00

Peak level 96.0 %
Extraction speed 3.8 X
Track quality 100.0 %
Test CRC 3C859A4C
Copy CRC 3C859A4C
Track not present in AccurateRip database
Copy OK

Track 2

Filename C:\Users\user\Music\Rips\Laughing Stock\Laughing Stock - 2021 - Zero Acts 1 & 2\02. When Darkness Comes.wav

Pre-gap length 0:00:00.13

Peak level 88.7 %
Extraction speed 4.7 X
Track quality 100.0 %
Test CRC 2A7633A4
Copy CRC 2A7633A4
Track not present in AccurateRip database
Copy OK

Track 3

Filename C:\Users\user\Music\Rips\Laughing Stock\Laughing Stock - 2021 - Zero Acts 1 & 2\03. Nighttime.wav

Pre-gap length 0:00:00.17

Peak level 95.3 %
Extraction speed 5.1 X
Track quality 99.9 %
Test CRC AFC2D860
Copy CRC AFC2D860
Track not present in AccurateRip database
Copy OK

Track 4

Filename C:\Users\user\Music\Rips\Laughing Stock\Laughing Stock - 2021 - Zero Acts 1 & 2\04. Imaginary Friend.wav

Pre-gap length 0:00:00.31

Peak level 58.5 %
Extraction speed 5.6 X
Track quality 100.0 %
Test CRC 7302A93F
Copy CRC 7302A93F
Track not present in AccurateRip database
Copy OK

Track 5

Filename C:\Users\user\Music\Rips\Laughing Stock\Laughing Stock - 2021 - Zero Acts 1 & 2\05. School.wav

Pre-gap length 0:00:00.57

Peak level 96.9 %
Extraction speed 5.2 X
Track quality 99.9 %
Test CRC C4C46C56
Copy CRC C4C46C56
Track not present in AccurateRip database
Copy OK

Track 6

Filename C:\Users\user\Music\Rips\Laughing Stock\Laughing Stock - 2021 - Zero Acts 1 & 2\06. Child.wav

Pre-gap length 0:00:01.27

Peak level 74.4 %
Extraction speed 5.7 X
Track quality 99.9 %
Test CRC D0C24A59
Copy CRC D0C24A59
Track not present in AccurateRip database
Copy OK

Track 7

Filename C:\Users\user\Music\Rips\Laughing Stock\Laughing Stock - 2021 - Zero Acts 1 & 2\07. Leave me Alone.wav

Pre-gap length 0:00:00.74

Peak level 96.9 %
Extraction speed 6.8 X
Track quality 100.0 %
Test CRC 0F4A12C7
Copy CRC 0F4A12C7
Track not present in AccurateRip database
Copy OK

Track 8

Filename C:\Users\user\Music\Rips\Laughing Stock\Laughing Stock - 2021 - Zero Acts 1 & 2\08. My Love pt 1.wav

Pre-gap length 0:00:00.60

Peak level 96.2 %
Extraction speed 6.3 X
Track quality 99.9 %
Test CRC 0CC871EF
Copy CRC 0CC871EF
Track not present in AccurateRip database
Copy OK

Track 9

Filename C:\Users\user\Music\Rips\Laughing Stock\Laughing Stock - 2021 - Zero Acts 1 & 2\09. My Love pt 2.wav

Pre-gap length 0:00:00.34

Peak level 96.1 %
Extraction speed 6.5 X
Track quality 99.9 %
Test CRC EA50FB02
Copy CRC EA50FB02
Track not present in AccurateRip database
Copy OK

Track 10

Filename C:\Users\user\Music\Rips\Laughing Stock\Laughing Stock - 2021 - Zero Acts 1 & 2\10. Last Supper.wav

Pre-gap length 0:00:00.59

Peak level 96.0 %
Extraction speed 6.5 X
Track quality 99.9 %
Test CRC 5BF2A81F
Copy CRC 5BF2A81F
Track not present in AccurateRip database
Copy OK

Track 11

Filename C:\Users\user\Music\Rips\Laughing Stock\Laughing Stock - 2021 - Zero Acts 1 & 2\11. Zero.wav

Pre-gap length 0:00:00.49

Peak level 89.9 %
Extraction speed 7.9 X
Track quality 100.0 %
Test CRC 909A7569
Copy CRC 909A7569
Track not present in AccurateRip database
Copy OK

Track 12

Filename C:\Users\user\Music\Rips\Laughing Stock\Laughing Stock - 2021 - Zero Acts 1 & 2\12. Goodbye.wav

Pre-gap length 0:00:00.56

Peak level 58.7 %
Extraction speed 6.7 X
Track quality 100.0 %
Test CRC 7089BBDD
Copy CRC 7089BBDD
Track not present in AccurateRip database
Copy OK

None of the tracks are present in the AccurateRip database

No errors occurred

End of status report

---- CUETools DB Plugin V2.1.6

[CTDB TOCID: liCBooq0796blBuj1T2WSfBe2oI-] found
Submit result: liCBooq0796blBuj1T2WSfBe2oI- has been confirmed
Track | CTDB Status
1 | (3/3) Accurately ripped
2 | (3/3) Accurately ripped
3 | (3/3) Accurately ripped
4 | (3/3) Accurately ripped
5 | (3/3) Accurately ripped
6 | (3/3) Accurately ripped
7 | (3/3) Accurately ripped
8 | (3/3) Accurately ripped
9 | (3/3) Accurately ripped
10 | (3/3) Accurately ripped
11 | (3/3) Accurately ripped
12 | (3/3) Accurately ripped

==== Log checksum 53AE8C3FD9E29E8F1A624B036BF58F2535943AA59E6190DB4C48265631133A26 ====
REM GENRE "Progressive Rock" 
REM DATE 2021
REM DISCID 990B510C
REM COMMENT "ExactAudioCopy v1.5"
PERFORMER "Laughing Stock"
TITLE "Zero Acts 1 & 2"
REM COMPOSER ""
FILE "01. Welcome.flac" WAVE
TRACK 01 AUDIO
TITLE "Welcome"
PERFORMER "Laughing Stock"
REM COMPOSER ""
ISRC NOL862106010
INDEX 01 00:00:00
TRACK 02 AUDIO
TITLE "When Darkness Comes"
PERFORMER "Laughing Stock"
REM COMPOSER ""
ISRC NOL862106020
INDEX 00 02:27:00
FILE "02. When Darkness Comes.flac" WAVE
INDEX 01 00:00:00
TRACK 03 AUDIO
TITLE "Nighttime"
PERFORMER "Laughing Stock"
REM COMPOSER ""
ISRC NOL862106030
INDEX 00 04:38:52
FILE "03. Nighttime.flac" WAVE
INDEX 01 00:00:00
TRACK 04 AUDIO
TITLE "Imaginary Friend"
PERFORMER "Laughing Stock"
REM COMPOSER ""
ISRC NOL862106040
INDEX 00 06:24:26
FILE "04. Imaginary Friend.flac" WAVE
INDEX 01 00:00:00
TRACK 05 AUDIO
TITLE "School"
PERFORMER "Laughing Stock"
REM COMPOSER ""
ISRC NOL862106050
INDEX 00 04:05:45
FILE "05. School.flac" WAVE
INDEX 01 00:00:00
TRACK 06 AUDIO
TITLE "Child"
PERFORMER "Laughing Stock"
REM COMPOSER ""
ISRC NOL862106060
INDEX 00 03:31:56
FILE "06. Child.flac" WAVE
INDEX 01 00:00:00
TRACK 07 AUDIO
TITLE "Leave me Alone"
PERFORMER "Laughing Stock"
REM COMPOSER ""
ISRC NOL862106070
INDEX 00 04:11:23
FILE "07. Leave me Alone.flac" WAVE
INDEX 01 00:00:00
TRACK 08 AUDIO
TITLE "My Love pt 1"
PERFORMER "Laughing Stock"
REM COMPOSER ""
ISRC NOL862106080
INDEX 00 04:43:22
FILE "08. My Love pt 1.flac" WAVE
INDEX 01 00:00:00
TRACK 09 AUDIO
TITLE "My Love pt 2"
PERFORMER "Laughing Stock"
REM COMPOSER ""
ISRC NOL862106090
INDEX 00 04:04:17
FILE "09. My Love pt 2.flac" WAVE
INDEX 01 00:00:00
TRACK 10 AUDIO
TITLE "Last Supper"
PERFORMER "Laughing Stock"
REM COMPOSER ""
ISRC NOL862106100
INDEX 00 04:12:38
FILE "10. Last Supper.flac" WAVE
INDEX 01 00:00:00
TRACK 11 AUDIO
TITLE "Zero"
PERFORMER "Laughing Stock"
REM COMPOSER ""
ISRC NOL862106110
INDEX 00 03:31:63
FILE "11. Zero.flac" WAVE
INDEX 01 00:00:00
TRACK 12 AUDIO
TITLE "Goodbye"
PERFORMER "Laughing Stock"
REM COMPOSER ""
ISRC NOL862106110
INDEX 00 04:30:56
FILE "12. Goodbye.flac" WAVE
INDEX 01 00:00:00

Этот торрент недоступен для скачивания без регистрации, однако доступен по публичной magnet-ссылке (источники с публичных трекеров). Перед использованием ссылки прочтите, пожалуйста Пользовательское соглашение, а также как можно дольше оставайтесь на раздаче! Для того, чтобы скачать сам торрент-файл (который видит больше источников), а также для того, чтобы поблагодарить релизера, вам необходимо зарегистрироваться. Если регистрироваться лень - вы можете также попробовать скачать релиз по нашим партнерским ссылкам ниже. Кроме того, зарегистрированным пользователям не показывается всплывающая реклама при скачивании.

[underver.se].t236790.torrent
Трекер: Зарегистрирован   [ 06.03.2022 16:55 ]  
Статус: проверено (by Бишеп at 06.03.2022 16:55)
Поблагодарили: пока никто не поблагодарил...
Тип торрента: публичный - доступные источники с открытых трекеров: 
Размер: 250 MB (занимает 0.06 DVDR, для записи нужно 1 болванка DVDR/RW)
 
 

Яндекс.Метрика powered by Sphinx


В Н И М А Н И Е
Сайт не распространяет и не хранит электронные версии произведений, а лишь бесплатно и без коммерческой выгоды (не требуя взамен платы,
SMS и т.д.) предоставляет доступ к создаваемому пользователями каталогу ссылок на торрент-файлы, которые содержат только списки хеш-сумм.
Убедительная просьба с жалобами обращаться напрямую к пользователю, разместившему торрент файл.

Вверх