Loading...
Error

Темный рыцарь: Возрождение легенды. Часть 1 / Batman: The Dark Knight Returns, Part 1 (Джей Олива) [2012 г., мультфильм, боевик, BDRip] Dub + Original + Subs (Rus,Eng) HQ Underverse

Статистика раздачи
Размер:  1.45 GB   |    Зарегистрирован:  9 лет 9 месяцев   |    Скачан:  35 раз

Полного источника не было: 2 года 4 месяца

Сидов:  0  |  0 KB/s  ]   Личеров:  0  |  0 KB/s  ]

* - сиды/пиры с внешних источников

   
 
Автор Сообщение

HQ Underverse 

11-Дек-2012 20:57

Темный рыцарь: Возрождение легенды. Часть 1 / Batman: The Dark Knight Returns, Part 1


Год выпуска: 2012
Жанр: мультфильм, боевик
Страна: США
Режиссер: Джей Олива
Роли озвучивали: Питер Уэллер, Эриель Винтер, Дэвид Селби, Уэйд Уильямс, Карлос Алазраки, Ди Брэдли Бейкер, Пэйджет Брюстер, Мария Кэнелс-Баррера, Кэти Кавадини, Таунсенд Коулмэн
Сюжет фильма:
Прошло 10 лет с тех пор как стареющий Бэтмен «ушел в отставку». Готэм в упадке и беззаконии. Теперь, когда городу так нужен его герой, Бэтмен наконец возвращается. В компании Кэрри Келли — девушки-супергероя — Бэтмен решает очистить улицы от банд мутантов, которые наводнили Готэм.

Качество видео: BDRip [BDRemux By: KRaLiMaRKo]

Продолжительность: 01:16:21
Формат: avi
Видео: XviD, 720x400, 2067 kbps
Аудио #1: русский, дублированный, AC3 2.0, 192 kbps
Аудио #2: английский, оригинал, AC3 5.1, 448 kbps
Субтитры #1: внешние, SRT, русский
Субтитры #2: внешние, SRT, английский

Код:

General
Complete name                    : D:\Video\Movies\Releases\Batman.The.Dark.Knight.Returns.Part.1.2012.BDRip.XviD.AC3.Rus.D.Eng.O.HQ.Underverse.avi
Format                           : AVI
Format/Info                      : Audio Video Interleave
File size                        : 1.45 GiB
Duration                         : 1h 16mn
Overall bit rate                 : 2 722 Kbps
Writing application              : VirtualDubMod 1.5.10.2 (build 2540/release)
Writing library                  : VirtualDubMod build 2540/release

Video
ID                               : 0
Format                           : MPEG-4 Visual
Format profile                   : Streaming [email protected]
Format settings, BVOP            : Yes
Format settings, QPel            : No
Format settings, GMC             : No warppoints
Format settings, Matrix          : Custom
Muxing mode                      : Packed bitstream
Codec ID                         : XVID
Codec ID/Hint                    : XviD
Duration                         : 1h 16mn
Bit rate                         : 2 068 Kbps
Width                            : 720 pixels
Height                           : 400 pixels
Display aspect ratio             : 16/9
Frame rate                       : 23.976 fps
Resolution                       : 24 bits
Colorimetry                      : 4:2:0
Scan type                        : Progressive
Bits/(Pixel*Frame)               : 0.299
Stream size                      : 1.10 GiB (76%)
Writing library                  : XviD 64

Audio #1
ID                               : 1
Format                           : AC-3
Format/Info                      : Audio Coding 3
Codec ID                         : 2000
Duration                         : 1h 16mn
Bit rate mode                    : Constant
Bit rate                         : 192 Kbps
Channel(s)                       : 2 channels
Channel positions                : L R
Sampling rate                    : 48.0 KHz
Stream size                      : 105 MiB (7%)
Alignment                        : Split accross interleaves
Interleave, duration             : 42 ms (1.00 video frame)
Interleave, preload duration     : 500 ms

Audio #2
ID                               : 2
Format                           : AC-3
Format/Info                      : Audio Coding 3
Codec ID                         : 2000
Duration                         : 1h 16mn
Bit rate mode                    : Constant
Bit rate                         : 448 Kbps
Channel(s)                       : 6 channels
Channel positions                : Front: L C R, Surround: L R, LFE
Sampling rate                    : 48.0 KHz
Stream size                      : 245 MiB (16%)
Alignment                        : Split accross interleaves
Interleave, duration             : 42 ms (1.00 video frame)
Interleave, preload duration     : 500 ms

Семпл: http://multi-up.com/802287

Релиз группы:

picpicpic
Для увеличения картинки щелкните мышкой по превью


Этот торрент недоступен для скачивания без регистрации, однако доступен по публичной magnet-ссылке (источники с публичных трекеров). Перед использованием ссылки прочтите, пожалуйста Пользовательское соглашение, а также как можно дольше оставайтесь на раздаче! Для того, чтобы скачать сам торрент-файл (который видит больше источников), а также для того, чтобы поблагодарить релизера, вам необходимо зарегистрироваться. Если регистрироваться лень - вы можете также попробовать скачать релиз по нашим партнерским ссылкам ниже. Кроме того, зарегистрированным пользователям не показывается всплывающая реклама при скачивании.

[underverse.su].t22186.torrent
Трекер: Зарегистрирован   [ 11.12.2012 20:57 ]  
Статус: проверено (by garry at 11.12.2012 21:00)
Поблагодарили: 2 человека
Тип торрента: публичный - доступные источники с открытых трекеров: 
Размер: 1.45 GB (занимает 1/3 DVDR, для записи нужно 1 болванка DVDR/RW)
 
 

Яндекс.Метрика powered by Sphinx


В Н И М А Н И Е
Сайт не распространяет и не хранит электронные версии произведений, а лишь бесплатно и без коммерческой выгоды (не требуя взамен платы,
SMS и т.д.) предоставляет доступ к создаваемому пользователями каталогу ссылок на торрент-файлы, которые содержат только списки хеш-сумм.
Убедительная просьба с жалобами обращаться напрямую к пользователю, разместившему торрент файл.

Вверх