Loading...
Error

Пентаверат / The Pentaverate (1 Сезон: серии 1-6 из 6) (Тим Киркби) [2022, Комедия, WEB-DLRip-AVC] MVO (HDRezka Studio) + Original + Sub

Статистика раздачи
Размер:  3.97 GB   |    Зарегистрирован:  4 месяца 25 дней   |    Скачан:  17 раз

Полного источника не было: 1 час 25 минут

Сидов:  0  |  0 KB/s  ]   Личеров:  0  |  0 KB/s  ]

* - сиды/пиры с внешних источников

   
 
Автор Сообщение

cheloweck.dojdya Пол:Муж

10-Май-2022 15:53

Пентаверат / The Pentaverate
«Разоблачение невозможно…»


Название: Пентаверат
Оригинальное название: The Pentaverate
Год выхода: 2022
Жанр: Комедия
Выпущено: США / Jax Media, Netflix
Продолжительность: 6 x ~ 00:30:00
Перевод: Профессиональный (многоголосый закадровый) HDRezka Studio

Режиссёр: Тим Киркби

В ролях: Майк Майерс, Дженнифер Сондерс, Джереми Айронс, Кигэн-Майкл Ки, Кен Жонг, Лидия Уэст, Грег Хойт, Даниил Буров, Никлос Расмуссен, Дональд Сэйдж Маккэй

Описание: Что если во все мировые события со времен Великой чумы замешано тайное общество, работающее во имя высшего блага?



Качество: WEB-DLRip-AVC
Формат: MKV
Видео: MPEG-4 AVC/[email protected], 2640 kbps, 1024x426 (2.404) at 25.000 fps
Аудио #1: Русский: AC3, 6 ch, 448 kbps
Аудио #2: Английский: E-AC3, 6 ch, 448 kbps
Субтитры: английские, русские, украинские [вшитые отключаемые]
Общее
Уникальный идентификатор : 271601806000153046161630612520300912280 (0xCC549AE8A7B32F1FEB0A293DFF171E98)
Полное имя : F:1.ФИЛЬМЫ1. ФИЛЬМЫПентаверат The Pentaverate 2022Pentaverat The Pentaverate (1 Sezon serii 1-6 iz 6) (2022) WEB-DLRip-AVC HDRezka StudioThe Pentaverate.S01E01.mkv
Формат : Matroska
Версия формата : Version 4
Размер файла : 782 Мбайт
Продолжительность : 31 м. 2 с.
Общий поток : 3 521 Кбит/сек
Программа кодирования : Lavf
Библиотека кодирования : Lavf
Авторское право : *=Z=*
ErrorDetectionType : Per level 1
Attachments : poster.png
Язык : und

Видео
Идентификатор : 1
Формат : AVC
Формат/Информация : Advanced Video Codec
Профиль формата : [email protected]
Настройки формата : CABAC / 16 Ref Frames
Параметр CABAC формата : Да
Параметр RefFrames формата : 16 кадров
Идентификатор кодека : V_MPEG4/ISO/AVC
Продолжительность : 31 м. 2 с.
Битрейт : 2 640 Кбит/сек
Ширина : 1 024 пикселя
Высота : 426 пикселей
Соотношение сторон : 2,40:1
Режим частоты кадров : Постоянный
Частота кадров : 25,000 кадров/сек
Цветовое пространство : YUV
Субдискретизация насыщенности : 4:2:0
Битовая глубина : 8 бит
Тип развёртки : Прогрессивная
Бит/(Пиксели*Кадры) : 0.242
Размер потока : 567 Мбайт (73%)
Заголовок : USA / Jax Media, Netflix
Библиотека кодирования : x264 core 159 r2991 1771b55
Настройки программы : cabac=1 / ref=16 / deblock=1:-3:-3 / analyse=0x3:0x133 / me=umh / subme=11 / psy=1 / psy_rd=1.00:0.00 / mixed_ref=1 / me_range=32 / chroma_me=1 / trellis=2 / 8x8dct=1 / cqm=0 / deadzone=21,18 / fast_pskip=0 / chroma_qp_offset=-2 / threads=19 / lookahead_threads=3 / sliced_threads=0 / nr=60 / decimate=0 / interlaced=0 / bluray_compat=0 / constrained_intra=0 / bframes=16 / b_pyramid=2 / b_adapt=2 / b_bias=10 / direct=3 / weightb=1 / open_gop=0 / weightp=2 / keyint=250 / keyint_min=25 / scenecut=40 / intra_refresh=0 / rc_lookahead=60 / rc=2pass / mbtree=0 / bitrate=2640 / ratetol=1.0 / qcomp=0.70 / qpmin=3 / qpmax=69 / qpstep=4 / cplxblur=20.0 / qblur=0.5 / vbv_maxrate=5000 / vbv_bufsize=4000 / nal_hrd=none / filler=0 / ip_ratio=1.40 / pb_ratio=1.30 / aq=1:0.60
Default : Да
Forced : Нет

Аудио #1
Идентификатор : 2
Формат : AC-3
Формат/Информация : Audio Coding 3
Коммерческое название : Dolby Digital
Идентификатор кодека : A_AC3
Продолжительность : 31 м. 2 с.
Вид битрейта : Постоянный
Битрейт : 448 Кбит/сек
Каналы : 6 каналов
Channel layout : L R C LFE Ls Rs
Частота : 48,0 КГц
Частота кадров : 31,250 кадров/сек (1536 SPF)
Битовая глубина : 32 бит
Метод сжатия : С потерями
Размер потока : 99,5 Мбайт (13%)
Заголовок : MVO (HDRezka Studio)
Язык : Russian
Service kind : Complete Main
Default : Да
Forced : Нет

Аудио #2
Идентификатор : 3
Формат : E-AC-3
Формат/Информация : Enhanced AC-3
Коммерческое название : Dolby Digital Plus
Идентификатор кодека : A_EAC3
Продолжительность : 31 м. 2 с.
Вид битрейта : Постоянный
Битрейт : 448 Кбит/сек
Каналы : 6 каналов
Channel layout : L R C LFE Ls Rs
Частота : 48,0 КГц
Частота кадров : 31,250 кадров/сек (1536 SPF)
Битовая глубина : 32 бит
Метод сжатия : С потерями
Размер потока : 99,5 Мбайт (13%)
Заголовок : Original (English)
Язык : English
Service kind : Complete Main
Default : Нет
Forced : Нет

Текст #1
Идентификатор : 4
Формат : ASS
Идентификатор кодека : S_TEXT/ASS
Идентификатор кодека/Информация : Advanced Sub Station Alpha
Метод сжатия : Без потерь
Язык : English
Default : Да
Forced : Нет

Текст #2
Идентификатор : 5
Формат : ASS
Идентификатор кодека : S_TEXT/ASS
Идентификатор кодека/Информация : Advanced Sub Station Alpha
Метод сжатия : Без потерь
Заголовок : SDH
Язык : English
Default : Нет
Forced : Нет

Текст #3
Идентификатор : 6
Формат : ASS
Идентификатор кодека : S_TEXT/ASS
Идентификатор кодека/Информация : Advanced Sub Station Alpha
Метод сжатия : Без потерь
Язык : Russian
Default : Нет
Forced : Нет

Текст #4
Идентификатор : 7
Формат : ASS
Идентификатор кодека : S_TEXT/ASS
Идентификатор кодека/Информация : Advanced Sub Station Alpha
Метод сжатия : Без потерь
Язык : Ukrainian
Default : Нет
Forced : Нет

Текст #5
Идентификатор : 8
Формат : ASS
Идентификатор кодека : S_TEXT/ASS
Идентификатор кодека/Информация : Advanced Sub Station Alpha
Метод сжатия : Без потерь
Заголовок : forced
Язык : Russian
Default : Нет
Forced : Нет




Этот торрент недоступен для скачивания без регистрации, однако доступен по публичной magnet-ссылке (источники с публичных трекеров). Перед использованием ссылки прочтите, пожалуйста Пользовательское соглашение, а также как можно дольше оставайтесь на раздаче! Для того, чтобы скачать сам торрент-файл (который видит больше источников), а также для того, чтобы поблагодарить релизера, вам необходимо зарегистрироваться. Если регистрироваться лень - вы можете также попробовать скачать релиз по нашим партнерским ссылкам ниже. Кроме того, зарегистрированным пользователям не показывается всплывающая реклама при скачивании.

[underver.se].t241553.torrent
Трекер: Зарегистрирован   [ 10.05.2022 15:53 ]  
Статус: проверено (by Robbertta at 10.05.2022 16:25)
Поблагодарили: пока никто не поблагодарил...
Тип торрента: публичный - доступные источники с открытых трекеров: 
Размер: 3.97 GB (занимает 0.91 DVDR, для записи нужно 1 болванка DVDR/RW)
 
 

virusrus66 

25-Май-2022 18:49

:)

cheloweck.dojdya Пол:Муж

25-Май-2022 18:51

virusrus66 писал(а):

:)
содержательное сообщение :ROFL:

Яндекс.Метрика powered by Sphinx


В Н И М А Н И Е
Сайт не распространяет и не хранит электронные версии произведений, а лишь бесплатно и без коммерческой выгоды (не требуя взамен платы,
SMS и т.д.) предоставляет доступ к создаваемому пользователями каталогу ссылок на торрент-файлы, которые содержат только списки хеш-сумм.
Убедительная просьба с жалобами обращаться напрямую к пользователю, разместившему торрент файл.

Вверх