Loading...
Error

Миротворец / Peacemaker (Сезон: 1, серии: 1-8 из 8 (Джеймс Ганн, Брэд Андерсон) [2022, Фантастика, фэнтези, боевик, комедия, криминал, приключения, WEB-DLRip] MVO (Novamedia) + Sub

Статистика раздачи
Размер:  4.14 GB   |    Зарегистрирован:  4 месяца 22 дня   |    Скачан:  11 раз

Полного источника не было: 22 дня

Сидов:  0  |  0 KB/s  ]   Личеров:  0  |  0 KB/s  ]

* - сиды/пиры с внешних источников

   
 
Автор Сообщение

cheloweck.dojdya Пол:Муж

13-Май-2022 22:19

Миротворец / Peacemaker


Год выхода: 2022
Выпущено: США / Showtime Networks Inc.
Жанр: драма, криминал, детектив
Продолжительность: ~ 00:45:00
Перевод: Профессиональный (многоголосый закадровый) Студия «Novamedia» [по заказу Амедиатека]
Субтитры: Русские (форсированные / вшитые)

Режиссёр: Джеймс Ганн, Брэд Андерсон

В ролях: Джон Сина, Дженнифер Холлэнд, Роберт Патрик, Крис Конрад, Фредди Строма, Кристофер Хейердал, Стив Эйджи, Даниэль Брукс, Чаквуди Ивуджи, Нют Ле, Локлин Манро, Энни Чанг, Элисон Арая, Элизабет Ладлоу, Стефен Блэкхарт

Описание: Спин-офф фильма «Отряд самоубийц: Миссия навылет» (2021), действие которого разворачивается в расширенной вселенной DC. История происхождения супергероя Кристофера Смита, известного как Миротворец. Заслуживший свой титул, он верит, что мир и свободу можно достигнуть любыми способами, даже если для этого придётся убить множество плохих парней.



Качество: WEB-DLRip
Формат: AVI
Видео: 704x400 (1.76:1), 23.976 fps, XviD build 69 ~1500 kbps avg, 0.22 bit/pixel
Аудио: 48 kHz, AC3 Dolby Digital, 2/0 (L,R) ch, ~192 kbps avg

Код:

Общее
Полное имя                               : F:\Peacemaker_S01_E01_2022_WEB-DLRip_NM_by_Dalemake.avi
Формат                                   : AVI
Формат/Информация                        : Audio Video Interleave
Размер файла                             : 573 Мбайт
Продолжительность                        : 46 м. 40 с.
Общий поток                              : 1 716 Кбит/сек
Программа кодирования                    : VirtualDubMod 1.5.10.3 | www.virtualdub-fr.org || (build 2550/release)
Библиотека кодирования                   : VirtualDubMod build 2550/release

Видео
Идентификатор                            : 0
Формат                                   : MPEG-4 Visual
Профиль формата                          : Advanced [email protected]
Настройки формата                        : BVOP1 / Custom Matrix
Параметр BVOP формата                    : 1
Параметр QPel формата                    : Нет
Параметр GMC формата                     : Без точки перехода
Параметр матрицы формата                 : Выборочная
Идентификатор кодека                     : XVID
Идентификатор кодека/Подсказка           : XviD
Продолжительность                        : 46 м. 40 с.
Битрейт                                  : 1 514 Кбит/сек
Ширина                                   : 704 пикселя
Высота                                   : 400 пикселей
Соотношение сторон                       : 16:9
Частота кадров                           : 23,976 (24000/1001) кадра/сек
Цветовое пространство                    : YUV
Субдискретизация насыщенности            : 4:2:0
Битовая глубина                          : 8 бит
Тип развёртки                            : Прогрессивная
Метод сжатия                             : С потерями
Бит/(Пиксели*Кадры)                      : 0.224
Размер потока                            : 506 Мбайт (88%)
Библиотека кодирования                   : XviD 69

Аудио
Идентификатор                            : 1
Формат                                   : AC-3
Формат/Информация                        : Audio Coding 3
Коммерческое название                    : Dolby Digital
Идентификатор кодека                     : 2000
Продолжительность                        : 46 м. 40 с.
Вид битрейта                             : Постоянный
Битрейт                                  : 192 Кбит/сек
Каналы                                   : 2 канала
Channel layout                           : L R
Частота                                  : 48,0 КГц
Частота кадров                           : 31,250 кадров/сек (1536 SPF)
Метод сжатия                             : С потерями
Размер потока                            : 64,1 Мбайт (11%)
Выравнивание                             : Разделение по промежуткам
Продолжительность промежутка             : 42  мс. (1,00 видеокадр)
Время предзагрузки промежутка            : 500  мс.
Service kind                             : Complete Main




Этот торрент недоступен для скачивания без регистрации, однако доступен по публичной magnet-ссылке (источники с публичных трекеров). Перед использованием ссылки прочтите, пожалуйста Пользовательское соглашение, а также как можно дольше оставайтесь на раздаче! Для того, чтобы скачать сам торрент-файл (который видит больше источников), а также для того, чтобы поблагодарить релизера, вам необходимо зарегистрироваться. Если регистрироваться лень - вы можете также попробовать скачать релиз по нашим партнерским ссылкам ниже. Кроме того, зарегистрированным пользователям не показывается всплывающая реклама при скачивании.

[underver.se].t241731.torrent
Трекер: Зарегистрирован   [ 13.05.2022 22:19 ]  
Статус: проверено (by Robbertta at 14.05.2022 05:15)
Поблагодарили: пока никто не поблагодарил...
Тип торрента: публичный - доступные источники с открытых трекеров: 
Размер: 4.14 GB (занимает 0.95 DVDR, для записи нужно 1 болванка DVDR/RW)
 
 

Яндекс.Метрика powered by Sphinx


В Н И М А Н И Е
Сайт не распространяет и не хранит электронные версии произведений, а лишь бесплатно и без коммерческой выгоды (не требуя взамен платы,
SMS и т.д.) предоставляет доступ к создаваемому пользователями каталогу ссылок на торрент-файлы, которые содержат только списки хеш-сумм.
Убедительная просьба с жалобами обращаться напрямую к пользователю, разместившему торрент файл.

Вверх