Loading...
Error

(Hard Rock) Def Leppard - Diamond Star Halos (Japanese Ltd. Edt.) (2022) [FLAC (Image+.cue), lossless]

Статистика раздачи
Размер:  619 MB   |    Зарегистрирован:  3 месяца 19 дней   |    Скачан:  6 раз

Полного источника не было: 1 месяц 9 дней

Сидов:  0  |  0 KB/s  ]   Личеров:  0  |  0 KB/s  ]

* - сиды/пиры с внешних источников

   
 
Автор Сообщение

sergej644 Пол:Муж

07-Июн-2022 10:33

Def Leppard - Diamond Star Halos

Жанр: Hard Rock
Год выпуска: 2022
Носитель: CD
Производитель: UMC
Аудиокодек: FLAC
Тип рипа: Image+.cue
Битрейт: lossless
Продолжительность: 01:10:37
01. Take What You Want (4:16)
02. Kick (3:43)
03. Fire It Up (3:20)
04. This Guitar (3:51)
05. SOS Emergency (3:26)
06. Liquid Dust (4:02)
07. U Rok Mi (3:34)
08. Goodbye For Good This Time (4:28)
09. All We Need (4:47)
10. Open Your Eyes (4:20)
11. Gimme a Kiss That Rocks (3:13)
12. Angels (Can't Help You Now) (4:58)
13. Lifeless (4:20)
14. Unbreakable (3:47)
15. From Here to Eternity (5:42)
16. Goodbye For Good This Time - Avant-Garde Mix (4:35)
17. Lifeless - Joe Only Version (4:22)
Exact Audio Copy V1.6 from 23. October 2020 

EAC extraction logfile from 4. June 2022, 9:17

Def Leppard / Diamond Star Halos

Used drive : TSSTcorpBDDVDW SE-506BB Adapter: 1 ID: 0

Read mode : Secure
Utilize accurate stream : Yes
Defeat audio cache : Yes
Make use of C2 pointers : No

Read offset correction : 6
Overread into Lead-In and Lead-Out : No
Fill up missing offset samples with silence : Yes
Delete leading and trailing silent blocks : No
Null samples used in CRC calculations : Yes
Used interface : Native Win32 interface for Win NT & 2000

Used output format : User Defined Encoder
Selected bitrate : 768 kBit/s
Quality : High
Add ID3 tag : No
Command line compressor : Z:\opt\exact-audio-copy\wavpack.exe
Additional command line options : -h %source%

TOC of the extracted CD

Track | Start | Length | Start sector | End sector
---------------------------------------------------------
1 | 0:00.00 | 4:15.66 | 0 | 19190
2 | 4:15.66 | 3:42.36 | 19191 | 35876
3 | 7:58.27 | 3:19.40 | 35877 | 50841
4 | 11:17.67 | 3:50.35 | 50842 | 68126
5 | 15:08.27 | 3:25.35 | 68127 | 83536
6 | 18:33.62 | 4:01.72 | 83537 | 101683
7 | 22:35.59 | 3:33.21 | 101684 | 117679
8 | 26:09.05 | 4:27.08 | 117680 | 137712
9 | 30:36.13 | 4:46.17 | 137713 | 159179
10 | 35:22.30 | 4:19.12 | 159180 | 178616
11 | 39:41.42 | 3:12.58 | 178617 | 193074
12 | 42:54.25 | 4:57.68 | 193075 | 215417
13 | 47:52.18 | 4:19.62 | 215418 | 234904
14 | 52:12.05 | 3:46.61 | 234905 | 251915
15 | 55:58.66 | 5:41.21 | 251916 | 277511
16 | 61:40.12 | 4:34.64 | 277512 | 298125
17 | 66:15.01 | 4:21.74 | 298126 | 317774

Range status and errors

Selected range

Filename Z:\tmp\Def Leppard - Diamond Star Halos.wav

Peak level 100.0 %
Extraction speed 2.2 X
Range quality 99.9 %
Test CRC E1FD451B
Copy CRC E1FD451B
Copy OK

No errors occurred

AccurateRip summary
Track 1 not present in database
Track 2 not present in database
Track 3 not present in database
Track 4 not present in database
Track 5 not present in database
Track 6 not present in database
Track 7 not present in database
Track 8 not present in database
Track 9 not present in database
Track 10 not present in database
Track 11 not present in database
Track 12 not present in database
Track 13 not present in database
Track 14 not present in database
Track 15 not present in database
Track 16 not present in database
Track 17 not present in database
None of the tracks are present in the AccurateRip database

End of status report
REM GENRE "Hard Rock" 
REM DATE 2022
REM DISCID F5108D11
REM COMMENT "ExactAudioCopy v1.6"
CATALOG 0602445686841
PERFORMER "Def Leppard"
TITLE "Diamond Star Halos"
REM COMPOSER "Def Leppard"
FILE "Def Leppard - Diamond Star Halos.flac" WAVE
TRACK 01 AUDIO
TITLE "Take What You Want"
PERFORMER "Def Leppard"
REM COMPOSER "Def Leppard"
ISRC GBUM72107486
INDEX 01 00:00:00
TRACK 02 AUDIO
TITLE "Kick"
PERFORMER "Def Leppard"
REM COMPOSER "Def Leppard"
ISRC GBUM72107487
INDEX 01 04:15:66
TRACK 03 AUDIO
TITLE "Fire It Up"
PERFORMER "Def Leppard"
REM COMPOSER "Def Leppard"
ISRC GBUM72107488
INDEX 01 07:58:27
TRACK 04 AUDIO
TITLE "This Guitar"
PERFORMER "Def Leppard"
REM COMPOSER "Def Leppard"
ISRC GBUM72107488
INDEX 01 11:17:67
TRACK 05 AUDIO
TITLE "SOS Emergency"
PERFORMER "Def Leppard"
REM COMPOSER "Def Leppard"
ISRC GBUM72107490
INDEX 01 15:08:27
TRACK 06 AUDIO
TITLE "Liquid Dust"
PERFORMER "Def Leppard"
REM COMPOSER "Def Leppard"
ISRC GBUM72107491
INDEX 01 18:33:62
TRACK 07 AUDIO
TITLE "U Rok Mi"
PERFORMER "Def Leppard"
REM COMPOSER "Def Leppard"
ISRC GBUM72107492
INDEX 01 22:35:59
TRACK 08 AUDIO
TITLE "Goodbye For Good This Time"
PERFORMER "Def Leppard"
REM COMPOSER "Def Leppard"
ISRC GBUM72107493
INDEX 01 26:09:05
TRACK 09 AUDIO
TITLE "All We Need"
PERFORMER "Def Leppard"
REM COMPOSER "Def Leppard"
ISRC GBUM72107494
INDEX 01 30:36:13
TRACK 10 AUDIO
TITLE "Open Your Eyes"
PERFORMER "Def Leppard"
REM COMPOSER "Def Leppard"
ISRC GBUM72107495
INDEX 01 35:22:30
TRACK 11 AUDIO
TITLE "Gimme a Kiss That Rocks"
PERFORMER "Def Leppard"
REM COMPOSER "Def Leppard"
ISRC GBUM72107496
INDEX 01 39:41:42
TRACK 12 AUDIO
TITLE "Angels (Can't Help You Now)"
PERFORMER "Def Leppard"
REM COMPOSER "Def Leppard"
ISRC GBUM72107497
INDEX 01 42:54:25
TRACK 13 AUDIO
TITLE "Lifeless"
PERFORMER "Def Leppard"
REM COMPOSER "Def Leppard"
ISRC GBUM72107498
INDEX 01 47:52:18
TRACK 14 AUDIO
TITLE "Unbreakable"
PERFORMER "Def Leppard"
REM COMPOSER "Def Leppard"
ISRC GBUM72107499
INDEX 01 52:12:05
TRACK 15 AUDIO
TITLE "From Here to Eternity"
PERFORMER "Def Leppard"
REM COMPOSER "Def Leppard"
ISRC GBUM72107500
INDEX 01 55:58:66
TRACK 16 AUDIO
TITLE "Goodbye For Good This Time - Avant-Garde Mix"
PERFORMER "Def Leppard"
REM COMPOSER "Def Leppard"
ISRC GBUM72200916
INDEX 00 61:36:38
INDEX 01 61:40:12
TRACK 17 AUDIO
TITLE "Lifeless - Joe Only Version"
PERFORMER "Def Leppard"
REM COMPOSER "Def Leppard"
ISRC GBUM72200917
INDEX 00 66:13:21
INDEX 01 66:15:01

Этот торрент недоступен для скачивания без регистрации, однако доступен по публичной magnet-ссылке (источники с публичных трекеров). Перед использованием ссылки прочтите, пожалуйста Пользовательское соглашение, а также как можно дольше оставайтесь на раздаче! Для того, чтобы скачать сам торрент-файл (который видит больше источников), а также для того, чтобы поблагодарить релизера, вам необходимо зарегистрироваться. Если регистрироваться лень - вы можете также попробовать скачать релиз по нашим партнерским ссылкам ниже. Кроме того, зарегистрированным пользователям не показывается всплывающая реклама при скачивании.

[underver.se].t242988.torrent
Трекер: Зарегистрирован   [ 07.06.2022 10:33 ]  
Статус: проверено (by Robbertta at 07.06.2022 11:19)
Поблагодарили: 2 человека
Тип торрента: публичный - доступные источники с открытых трекеров: 
Размер: 619 MB (занимает 0.14 DVDR, для записи нужно 1 болванка DVDR/RW)
 
 

garry Пол:Муж

09-Июн-2022 20:14

sergej644
это Ваш собственный рип?

Яндекс.Метрика powered by Sphinx


В Н И М А Н И Е
Сайт не распространяет и не хранит электронные версии произведений, а лишь бесплатно и без коммерческой выгоды (не требуя взамен платы,
SMS и т.д.) предоставляет доступ к создаваемому пользователями каталогу ссылок на торрент-файлы, которые содержат только списки хеш-сумм.
Убедительная просьба с жалобами обращаться напрямую к пользователю, разместившему торрент файл.

Вверх