Loading...
Error

Ривердэйл / Riverdale (5 сезон: 1-19 серии из 19) (Гэбриел Корреа, Стив Эделсон, Роб Шейденгланц) [2021, Драма, мелодрама, криминал, детектив, WEB-DLRip] MVO (LostFilm) + Original (Eng)

Статистика раздачи
Размер:  11.28 GB   |    Зарегистрирован:  3 месяца 20 дней   |    Скачан:  2 раза

Полного источника не было: 1 месяц 12 дней

Сидов:  0  |  0 KB/s  ]   Личеров:  0  |  0 KB/s  ]

* - сиды/пиры с внешних источников

   
 
Автор Сообщение

Renesans Пол:Муж

15-Июн-2022 11:35

Ривердэйл

Год выпуска: 2021
Страна: США
Жанр: Драма, мелодрама, криминал, детектив
Продолжительность: ~ 00:42:00
Перевод: Профессиональный (многоголосый закадровый) | LostFilm
Режиссёр: Гэбриел Корреа, Стив Эделсон, Роб Шейденгланц
В ролях: Кей Джей Апа, Лили Рейнхарт, Камила Мендес, Коул Спроус, Кейси Котт, Мэделин Петш, Мэдхен Амик, Марк Консуэлос, Скит Ульрих, Марисоль Николс, Ванесса Морган, Чарльз Мелтон
Описание: Сериал расскажет о жизни и приключениях жизнерадостного и никогда не унывающего подростка Арчи Эндрюса, а также Бэтти Купер, Вероники Лодж и их друзей из Ривердэйла. Действие разворачивается в современном мире, а главные герои решают исследовать сокрытую от посторонних сторону жизни маленького мирного городка со всеми его странностями и тёмными тайнами, прячущимися за праздничным фасадом.

Качество: WEB-DLRip
Формат: AVI
Видео: XviD, 720x400 (16:9), 23,976 fps, ~ 1600 kbps
Аудио 1: AC-3, 48 kHz, 2 ch, 192 kbps - Lostfilm
Аудио 2: AC-3, 48 kHz, 2 ch, 192 kbps - Original
Субтитры: Отсутствуют
01 - Глава семьдесят седьмая: Кульминация / Chapter Seventy-Seven: Climax
02 - Глава семьдесят восьмая. Убийства богачей из частной школы / Chapter Seventy-Eight: The Preppy Murders
03 - Глава семьдесят девятая. Выпускной / Chapter Seventy-Nine: Graduation
04 - Глава восьмидесятая. Чистилище / Chapter Eighty: Purgatorio
05 - Глава восемьдесят первая. Возвращение домой / Chapter Eighty-One: The Homecoming
06 - Глава восемьдесят вторая. Снова в школу / Chapter Eighty-Two: Back to School
07 - Глава восемьдесят третья. Огонь в небесах / Chapter Eighty-Three: Fire in the Sky
08 - Глава восемьдесят четвертая. Замок и ключ / Chapter Eighty-Four: Lock & Key
09 - Глава восемьдесят пятая. Разрушитель / Chapter Eighty-Five: Destroyer
10 - Глава восемьдесят шестая. Человек-игольник / Chapter Eighty-Six: The Pincushion Man
11 - Глава восемьдесят седьмая. Странные партнеры / Chapter Eighty-Seven: Strange Bedfellows
12 - Глава восемьдесят восьмая. Гражданин Лодж / Chapter Eighty-Eight: Citizen Lodge
13 - Глава восемьдесят девятая. Бешеные псы / Chapter Eighty-Nine: Reservoir Dogs
14 - Глава девяностая. Ночная галерея / Chapter Ninety: The Night Gallery
15 - Глава девяносто первая. Возвращение "Кошечек" / Chapter Ninety-One: The Return of the Pussycats
16 - Глава девяносто вторая. Братья по оружию / Chapter Ninety-Two: Band of Brothers
17 - Глава девяносто третья. Танец со смертью / Chapter Ninety-Three: Dance of Death
18 - Глава девяносто четвертая. Почти норма / Chapter Ninety-Four: Next to Normal
19 - Глава девяносто пятая. Ривердэйл, покойся с миром (?) / Chapter Ninety-Five: RIVERDALE: RIP (?)
 
Общее
Полное имя : E:\Temp\Riverdale.S05.WEB-DLRip.LF\Riverdale.S05E01.avi
Формат : AVI
Формат/Информация : Audio Video Interleave
Размер файла : 605 Мбайт
Продолжительность : 42 м. 19 с.
Общий поток : 1998 Кбит/сек
Название фильма : S05E01 - Кульминация
Программа кодирования : VirtualDubMod 1.5.10.3 (build 2550/release)

Видео
Идентификатор : 0
Формат : MPEG-4 Visual
Профиль формата : Advanced [email protected]
Настройки формата : BVOP1
Параметр BVOP формата : 1
Параметр QPel формата : Нет
Параметр GMC формата : Без точки перехода
Параметр матрицы формата : Default (MPEG)
Идентификатор кодека : XVID
Идентификатор кодека/Подсказка : XviD
Продолжительность : 42 м. 19 с.
Битрейт : 1600 Кбит/сек
Ширина : 720 пикселей
Высота : 400 пикселей
Соотношение сторон : 16:9
Частота кадров : 23,976 (24000/1001) кадра/сек
Цветовое пространство : YUV
Субдискретизация насыщенности : 4:2:0
Битовая глубина : 8 бит
Тип развёртки : Прогрессивная
Метод сжатия : С потерями
Бит/(Пиксели*Кадры) : 0.232
Размер потока : 484 Мбайт (80%)
Библиотека кодирования : XviD 67

Аудио #1
Идентификатор : 1
Формат : AC-3
Формат/Информация : Audio Coding 3
Коммерческое название : Dolby Digital
Идентификатор кодека : 2000
Продолжительность : 42 м. 19 с.
Вид битрейта : Постоянный
Битрейт : 192 Кбит/сек
Каналы : 2 канала
ChannelLayout : L R
Частота : 48,0 КГц
Частота кадров : 31,250 кадров/сек (1536 SPF)
Метод сжатия : С потерями
Размер потока : 58,1 Мбайт (10%)
Выравнивание : Разделение по промежуткам
Продолжительность промежутка : 42 мс. (1,00 видеокадр)
Время предзагрузки промежутка : 500 мс.
ServiceKind/String : Complete Main

Аудио #2
Идентификатор : 2
Формат : AC-3
Формат/Информация : Audio Coding 3
Коммерческое название : Dolby Digital
Идентификатор кодека : 2000
Продолжительность : 42 м. 19 с.
Вид битрейта : Постоянный
Битрейт : 192 Кбит/сек
Каналы : 2 канала
ChannelLayout : L R
Частота : 48,0 КГц
Частота кадров : 31,250 кадров/сек (1536 SPF)
Метод сжатия : С потерями
Размер потока : 58,1 Мбайт (10%)
Выравнивание : Разделение по промежуткам
Продолжительность промежутка : 42 мс. (1,00 видеокадр)
Время предзагрузки промежутка : 500 мс.
ServiceKind/String : Complete Main


Раздача ведётся путём добавления новых серий; при каждом добавлении создаётся новый торрент.
Чтобы начать докачку новой серии, пользователям необходимо сделать следующее:
1. остановить скачивание,
2. удалить старый торрент у себя из клиента (старые серии удалять не надо),
3. скачать новый торрент и запустить его у себя в клиенте вместо старого, при этом указать клиенту путь в старую папку, куда и должно происходить скачивание новых серий.

Ваш клиент при этом должен произвести хеширование (проверку) старой папки (если не производит сам - помогите ему сделать это), и будет докачивать только те серии которых у вас ещё нет. Старые серии при этом не удаляются, а продолжают раздаваться!

Eсли вы уже удалили старые серии, то предотвратить повторную закачку старых серий можно, отжав галочку в соответствующих местах при запуске нового торрента. По возможности, желательно не удалять старые серии как можно дольше, чтобы релизёр не столько продолжал раздавать старые серии, а смог сконцентрироваться на новых.

Совет для тех, кто не хочет ждать перехеширования:
Создайте ещё одну папку рядом с папкой сериала (рядом, а не в ней!!!). Каждую новую серию после удачной загрузки копируйте в новую папку так чтобы ваша основная папка всегда была пуста. Когда ваш новый торрент предложит вам закачать все файлы, выберете только последнюю. Для сидирования же укажите адрес новой папки.

Этот торрент недоступен для скачивания без регистрации, однако доступен по публичной magnet-ссылке (источники с публичных трекеров). Перед использованием ссылки прочтите, пожалуйста Пользовательское соглашение, а также как можно дольше оставайтесь на раздаче! Для того, чтобы скачать сам торрент-файл (который видит больше источников), а также для того, чтобы поблагодарить релизера, вам необходимо зарегистрироваться. Если регистрироваться лень - вы можете также попробовать скачать релиз по нашим партнерским ссылкам ниже. Кроме того, зарегистрированным пользователям не показывается всплывающая реклама при скачивании.

[underver.se].t243187.torrent
Трекер: Зарегистрирован   [ 15.06.2022 11:35 ]  
Статус: проверено (by Robbertta at 15.06.2022 15:19)
Поблагодарили: пока никто не поблагодарил...
Тип торрента: публичный - доступные источники с открытых трекеров: 
Размер: 11.28 GB (занимает 2.58 DVDR, для записи нужно 3 болванки DVDR/RW)
 
 

Яндекс.Метрика powered by Sphinx


В Н И М А Н И Е
Сайт не распространяет и не хранит электронные версии произведений, а лишь бесплатно и без коммерческой выгоды (не требуя взамен платы,
SMS и т.д.) предоставляет доступ к создаваемому пользователями каталогу ссылок на торрент-файлы, которые содержат только списки хеш-сумм.
Убедительная просьба с жалобами обращаться напрямую к пользователю, разместившему торрент файл.

Вверх