Loading...
Error

Видеть / See (2 сезон: 1-8 серии из 8) (Френсис Лоуренс, Андерс Энгстрем, Стивен Серджик, Фред Туа, Салли Ричардсон-Уитфилд) [2021, фантастика, боевик, драма, WEB-DLRip] Dub (Пифагор) + Original + Sub (Rus, Eng)

Статистика раздачи
Размер:  8.77 GB   |    Зарегистрирован:  3 месяца 15 дней   |    Скачан:  6 раз

Полного источника не было: 1 день 21 час

Сидов:  0  |  1 KB/s  ]   Личеров:  1  |  59 KB/s  ]

* - сиды/пиры с внешних источников

   
 
Автор Сообщение

Renesans Пол:Муж

15-Июн-2022 17:15

Видеть

Год выпуска: 2021
Страна: США
Жанр: фантастика, боевик, драма
Продолжительность: ~ 01:00:00
Перевод: Профессиональный (дублированный) - [box]Пифагор[/box]
Режиссёр: Френсис Лоуренс, Андерс Энгстрем, Стивен Серджик, Фред Туа, Салли Ричардсон-Уитфилд

В ролях: Джейсон Момоа, Сильвия Хукс, Хера Хильмар, Кристиан Камарго, Арчи Мадекве, Неста Купер, Ядира Гевара-Прип, Элфри Вудард, Дэйв Батиста, Моджиан Ариа, Люк Родерик, Танту Кардинал, Мэрили Токингтон, Лорен Глэйзер, Франц Драмех, Тимоти Уэббер, Джессика Харпер, Джошуа Генри
Описание: В далёком будущем человеческая раса полностью лишилась зрения. Чтобы выжить, людям пришлось найти новый способ сосуществовать, строить и добывать пищу. Всё меняется, когда в семье бесстрашного воина Бабы Восса рождаются зрячие близнецы. Их появление рискует нарушить хрупкий баланс нового мира и ввергнуть успокоившуюся цивилизацию в хаос.
Доп. информация: За озвучку и субтитры спасибо

Качество: WEB-DLRip
Формат: AVI
Видео: XviD, 704x336, 23.976 fps, ~ 2000 Kbps
Аудио 1: AC3, 48.0 KHz, 6 ch, 384 kbps [Rus]
Аудио 2: AC3, 48.0 KHz, 6 ch, 384 kbps [Eng]
Субтитры: Русские (Forced, Full), английские (Full)
01 — Братья и сёстры / Brothers and Sisters
02 — Навсегда / Forever
03 — Компас / The Compass
04 — Охотник на ведьм / The Witchfinder
05 — Званый ужин / The Dinner Party
06 — Правда о единорогах / The Truth About Unicorns
07 — Речь царицы / The Queen's Speech
08 — Потрясения / Rock-a-Bye
 
Общее
Полное имя : See.S02.WEB-DLRip.Dub\See.S02E01.WEB-DLRip.avi
Формат : AVI
Формат/Информация : Audio Video Interleave
Размер файла : 1,22 Гбайт
Продолжительность : 1 ч. 2 м.
Общий поток : 2 782 Кбит/сек
Программа кодирования : VirtualDubMod 1.5.10.3 (build 2550/release)
Библиотека кодирования : VirtualDubMod build 2550/release

Видео
Идентификатор : 0
Формат : MPEG-4 Visual
Профиль формата : Advanced [email protected]
Настройки формата : BVOP1
Параметр BVOP формата : 1
Параметр QPel формата : Нет
Параметр GMC формата : Без точки перехода
Параметр матрицы формата : Default (MPEG)
Идентификатор кодека : XVID
Идентификатор кодека/Подсказка : XviD
Продолжительность : 1 ч. 2 м.
Битрейт : 2 000 Кбит/сек
Ширина : 704 пикселя
Высота : 336 пикселей
Соотношение сторон : 2,110
Частота кадров : 23,976 (24000/1001) кадра/сек
Цветовое пространство : YUV
Субдискретизация насыщенности : 4:2:0
Битовая глубина : 8 бит
Тип развёртки : Прогрессивная
Метод сжатия : С потерями
Бит/(Пиксели*Кадры) : 0.353
Размер потока : 895 Мбайт (72%)
Библиотека кодирования : XviD 67

Аудио #1
Идентификатор : 1
Формат : AC-3
Формат/Информация : Audio Coding 3
Коммерческое название : Dolby Digital
Идентификатор кодека : 2000
Продолжительность : 1 ч. 2 м.
Вид битрейта : Постоянный
Битрейт : 384 Кбит/сек
Каналы : 6 каналов
Channel layout : L R C LFE Ls Rs
Частота : 48,0 КГц
Частота кадров : 31,250 кадров/сек (1536 SPF)
Метод сжатия : С потерями
Размер потока : 172 Мбайт (14%)
Выравнивание : Разделение по промежуткам
Продолжительность промежутка : 42 мс. (1,00 видеокадр)
Время предзагрузки промежутка : 500 мс.
Service kind : Complete Main

Аудио #2
Идентификатор : 2
Формат : AC-3
Формат/Информация : Audio Coding 3
Коммерческое название : Dolby Digital
Идентификатор кодека : 2000
Продолжительность : 1 ч. 2 м.
Вид битрейта : Постоянный
Битрейт : 384 Кбит/сек
Каналы : 6 каналов
Channel layout : L R C LFE Ls Rs
Частота : 48,0 КГц
Частота кадров : 31,250 кадров/сек (1536 SPF)
Метод сжатия : С потерями
Размер потока : 172 Мбайт (14%)
Выравнивание : Разделение по промежуткам
Продолжительность промежутка : 42 мс. (1,00 видеокадр)
Время предзагрузки промежутка : 500 мс.
Service kind : Complete Main

Этот торрент недоступен для скачивания без регистрации, однако доступен по публичной magnet-ссылке (источники с публичных трекеров). Перед использованием ссылки прочтите, пожалуйста Пользовательское соглашение, а также как можно дольше оставайтесь на раздаче! Для того, чтобы скачать сам торрент-файл (который видит больше источников), а также для того, чтобы поблагодарить релизера, вам необходимо зарегистрироваться. Если регистрироваться лень - вы можете также попробовать скачать релиз по нашим партнерским ссылкам ниже. Кроме того, зарегистрированным пользователям не показывается всплывающая реклама при скачивании.

[underver.se].t243199.torrent
Трекер: Зарегистрирован   [ 15.06.2022 17:15 ]  
Статус: проверено (by Robbertta at 16.06.2022 05:57)
Поблагодарили: 1 человек
Тип торрента: публичный - доступные источники с открытых трекеров: 
Размер: 8.77 GB (занимает 2 DVDR, для записи нужно 3 болванки DVDR/RW)
 
 


Последний раз редактировалось: Renesans (16.06.2022 04:34), всего редактировалось 1 раз

Яндекс.Метрика powered by Sphinx


В Н И М А Н И Е
Сайт не распространяет и не хранит электронные версии произведений, а лишь бесплатно и без коммерческой выгоды (не требуя взамен платы,
SMS и т.д.) предоставляет доступ к создаваемому пользователями каталогу ссылок на торрент-файлы, которые содержат только списки хеш-сумм.
Убедительная просьба с жалобами обращаться напрямую к пользователю, разместившему торрент файл.

Вверх