Loading...
Error

Розуэлл, Нью-Мексико / Roswell, New Mexico (3 сезон: 1-13 серии из 13) (Лэнс Андерсон, Джеффри Дж. Хант, Тим Эндрю) [2021, фантастика, драма, WEB-DLRip] MVO (LostFilm) + Original

Статистика раздачи
Размер:  7.68 GB   |    Зарегистрирован:  3 месяца 10 дней   |    Скачан:  0 раз

Полного источника не было: Никогда

Сидов:  0  |  0 KB/s  ]   Личеров:  1  |  63 KB/s  ]

* - сиды/пиры с внешних источников

   
 
Автор Сообщение

Renesans Пол:Муж

15-Июн-2022 20:42

Розуэлл, Нью-Мексико


Год выпуска: 2021
Страна: США
Жанр: фантастика, драма
Продолжительность: ~ 00:42:00
Перевод: Профессиональный (многоголосый закадровый) | LostFilm
Режиссёр: Лэнс Андерсон, Джеффри Дж. Хант, Тим Эндрю

В ролях: Джанин Мэйсон, Лили Коулес, Нэйтан Парсонс, Хезер Сайрус Хемменс, Райли Воулкел, Тайлер Блэкберн, Майкл Тревино, Тревор Ст. Джон, Каран Оберой, Майкл Влэмис, Эмбер Мидфандер
Описание: В Нью-Мексико вечно творится что-то необъяснимое и невероятное. Это место отличается особой любовью к сверхъестественному и необъяснимому. Сюжет берет свое начало в небольшом городке Розуэлл. Сюда возвращается после долгого отсутствия главная героиня, являющаяся дочерью иммигрантов. Она долгое время пыталась найти свое место, но вынуждена вернуться в родной город. Неожиданно перед девушкой открываются по-настоящему удивительные подробности жизни местных жителей. Когда-то давно она была влюблена в молодого человека, с которым, увы, отношения так и не сложились. Молодой человек теперь вырос и стал полицейским. Однако это не самое главное: главное то, что он инопланетянин, которые уже на протяжении многих лет проживает на Земле и скрывает от всех свои сверхъестественные способности. В общем и целом, главная героиня сериала теперь вынуждена стать обладательницей такой информации. Что с ней делать - неясно! Героиня решает, что лучше всего будет скрыть от окружающих столь пугающий факт. Правда, вскоре становится понятно, что ее бывший возлюбленный - не единственный инопланетянин на Земле. К тому же, количество пришельцев настолько возросло, что, кажется, будто бы Земле что-то угрожает. Мировой кризис и война - это конечно плохо, но вот у девушки все еще остались притязания на романтику со своим старым знакомым. И ее не смущают недавно раскрывшиеся факты о нем.
Качество: WEB-DLRip
Формат: AVI
Видео: XVID, 720x400, 23.976 fps, ~ 1600 kbps avg, 0.23 bit/pixel
Аудио 1: AC3, 48.0 KHz, 2 ch, 192 kbps [Rus]
Аудио 2: AC3, 48.0 KHz, 2 ch, 192 kbps [Eng]
Субтитры: Отсутствуют
Реклама: Отсутствует
01. Братство / Hands
02. Только дай мне повод / Give Me One Reason
03. Солнце черной дыры / Black Hole Sun
04. Прогулка по океану / Walk on the Ocean
05. Нежно убивая своей песней / Killing Me Softly with His Song
06. Симфония горькой радости / Bittersweet Symphony
07. Доброй ночи, Элизабет / Goodnight Elizabeth
08. Освободи свой разум / Free Your Mind
09. Звуки дома / Tones of Home
10. Ангелы безмолвия / Angels of the Silences
11. Двое стали одним / 2 Became 1
12. От меня не так просто избавиться / I Ain't Goin' Out Like That
13. Я никогда тебя не отпущу / Never Let You Go
 
Общее
Полное имя : E:\Roswell.New.Mexico.S03.WEB-DLRip.LF\Roswell.New.Mexico.S03E01.avi
Формат : AVI
Формат/Информация : Audio Video Interleave
Размер файла : 606 Мбайт
Продолжительность : 42 м. 25 с.
Общий поток : 1 998 Кбит/сек
Программа кодирования : VirtualDubMod 1.5.10.3 (build 2550/release)
Библиотека кодирования : VirtualDubMod build 2550/release

Видео
Идентификатор : 0
Формат : MPEG-4 Visual
Профиль формата : Advanced [email protected]
Настройки формата : BVOP1
Параметр BVOP формата : 1
Параметр QPel формата : Нет
Параметр GMC формата : Без точки перехода
Параметр матрицы формата : Default (MPEG)
Идентификатор кодека : XVID
Идентификатор кодека/Подсказка : XviD
Продолжительность : 42 м. 25 с.
Битрейт : 1 600 Кбит/сек
Ширина : 720 пикселей
Высота : 400 пикселей
Соотношение сторон : 16:9
Частота кадров : 23,976 (24000/1001) кадра/сек
Цветовое пространство : YUV
Субдискретизация насыщенности : 4:2:0
Битовая глубина : 8 бит
Тип развёртки : Прогрессивная
Метод сжатия : С потерями
Бит/(Пиксели*Кадры) : 0.232
Размер потока : 486 Мбайт (80%)
Библиотека кодирования : XviD 67

Аудио #1
Идентификатор : 1
Формат : AC-3
Формат/Информация : Audio Coding 3
Коммерческое название : Dolby Digital
Идентификатор кодека : 2000
Продолжительность : 42 м. 25 с.
Вид битрейта : Постоянный
Битрейт : 192 Кбит/сек
Каналы : 2 канала
Channel layout : L R
Частота : 48,0 КГц
Частота кадров : 31,250 кадров/сек (1536 SPF)
Метод сжатия : С потерями
Размер потока : 58,3 Мбайт (10%)
Выравнивание : Разделение по промежуткам
Продолжительность промежутка : 42 мс. (1,00 видеокадр)
Время предзагрузки промежутка : 500 мс.
Service kind : Complete Main

Аудио #2
Идентификатор : 2
Формат : AC-3
Формат/Информация : Audio Coding 3
Коммерческое название : Dolby Digital
Идентификатор кодека : 2000
Продолжительность : 42 м. 25 с.
Вид битрейта : Постоянный
Битрейт : 192 Кбит/сек
Каналы : 2 канала
Channel layout : L R
Частота : 48,0 КГц
Частота кадров : 31,250 кадров/сек (1536 SPF)
Метод сжатия : С потерями
Размер потока : 58,3 Мбайт (10%)
Выравнивание : Разделение по промежуткам
Продолжительность промежутка : 42 мс. (1,00 видеокадр)
Время предзагрузки промежутка : 500 мс.
Service kind : Complete Main

Этот торрент недоступен для скачивания без регистрации, однако доступен по публичной magnet-ссылке (источники с публичных трекеров). Перед использованием ссылки прочтите, пожалуйста Пользовательское соглашение, а также как можно дольше оставайтесь на раздаче! Для того, чтобы скачать сам торрент-файл (который видит больше источников), а также для того, чтобы поблагодарить релизера, вам необходимо зарегистрироваться. Если регистрироваться лень - вы можете также попробовать скачать релиз по нашим партнерским ссылкам ниже. Кроме того, зарегистрированным пользователям не показывается всплывающая реклама при скачивании.

[underver.se].t243203.torrent
Трекер: Зарегистрирован   [ 15.06.2022 20:42 ]  
Статус: проверено (by Robbertta at 16.06.2022 04:01)
Поблагодарили: пока никто не поблагодарил...
Тип торрента: публичный - доступные источники с открытых трекеров: 
Размер: 7.68 GB (занимает 1.75 DVDR, для записи нужно 2 болванки DVDR/RW)
 
 

Яндекс.Метрика powered by Sphinx


В Н И М А Н И Е
Сайт не распространяет и не хранит электронные версии произведений, а лишь бесплатно и без коммерческой выгоды (не требуя взамен платы,
SMS и т.д.) предоставляет доступ к создаваемому пользователями каталогу ссылок на торрент-файлы, которые содержат только списки хеш-сумм.
Убедительная просьба с жалобами обращаться напрямую к пользователю, разместившему торрент файл.

Вверх