Loading...
Error

Американская история ужасов / American Horror Story (10 сезон: 1-10 серии из 10) / (Джон Дж. Грей, Лони Перистера, Аксель Кэролин) [2021, ужасы, триллер, драма, WEB-DLRip] MVO (LostFilm) + Original + Sub (Rus, Eng)

Статистика раздачи
Размер:  6.39 GB   |    Зарегистрирован:  3 месяца 10 дней   |    Скачан:  2 раза

Полного источника не было: 15 дней

Сидов:  0  |  0 KB/s  ]   Личеров:  0  |  0 KB/s  ]

* - сиды/пиры с внешних источников

   
 
Автор Сообщение

Renesans Пол:Муж

16-Июн-2022 07:29

Американская история ужасов


Год выпуска: 2021
Страна: США
Жанр: ужасы, триллер, драма
Продолжительность: ~ 00:50:00
Перевод: Профессиональный (многоголосый закадровый) - LostFilm
Режиссёр: Джон Дж. Грей, Лони Перистера, Аксель Кэролин

В ролях: Эван Питерс, Сара Полсон, Дэнис О’Хэр, Лили Рэйб, Кэти Бейтс, Фрэнсис Конрой, Джессика Лэнг, Анджела Бассетт, Эмма Робертс, Шайен Джексон, Адина Портер, Билли Лурд
Описание: Телевизионный сценарист Гарри Гарднер (Финн Уиттрок) на несколько зимних месяцев приезжает с беременной женой Дорис (Лили Рэйб) и дочкой Альмой (Райан Кира Армстронг) в захолустный Провинстаун. Здесь он надеется найти утерянное вдохновение и написать хоть несколько страниц для нового сериала. По приезде выясняется, что ему придется иметь дело не только с творческим кризисом, но и с весьма криповыми обитателями городка. В супермаркете на него нападает местная сумасшедшая Туберкулезная Карен (Сара Полсон) с пронзительными воплями из разряда «Бегите, глупцы!». А ночью дом атакуют жуткие бледные люди, повадками напоминающие монстров, готовых растерзать свою добычу. От немедленного отъезда Гарри отговаривают новые знакомые — успешные авторы Остин Саммерс (Эван Питерс) и Бэлль Нуар (Фрэнсис Конрой). Когда-то они, как и Гарднер, страдали от писательского ступора, но после нескольких зим в Провинстауне стали выдавать тексты столь желанные в Голливуде, что мигом озолотились. В качестве приманки Остин дает Гарри пилюлю, якобы способную раскрыть его потенциал. Вот только новый приятель умалчивает, какие последствия внезапно открывшегося гения его ждут и кем были те самые бледные люди в прошлой жизни…

Качество: WEB-DLRip
Формат: AVI
Видео: XviD, 704x352 (2,000), 23.976 fps, ~ 1600 Kbps
Аудио 1: AC3, 48.0 KHz, 2 ch, 192 kbps [Rus]
Аудио 2: AC3, 48.0 KHz, 2 ch, 192 kbps [Eng]
Субтитры: Русские (FOCS), английские
Реклама: Отсутствует
01 - Мыс Страха / Cape Fear
02 - Палые / Pale
03 - Жажда / Thirst
04 - Кровавый фуршет / Blood Buffet
05 - Тебе приснилось / Gaslight
06 - Кровавая зима / Winter Kills
07 - Отведите меня к главному / Take Me To Your Leader
08 - Внутри / Inside
09 - Голубая Луна / Blue Moon
10 - Прекрасное будущее / The Future Perfect
 
Общее
Полное имя :\American.Horror.Story.S10.WEB-DLRip.LF\American.Horror.Story.S10E01.avi
Формат : AVI
Формат/Информация : Audio Video Interleave
Размер файла : 722 Мбайт
Продолжительность : 50 м. 30 с.
Общий поток : 1 998 Кбит/сек
Программа кодирования : VirtualDubMod 1.5.10.3 (build 2550/release)
Библиотека кодирования : VirtualDubMod build 2550/release

Видео
Идентификатор : 0
Формат : MPEG-4 Visual
Профиль формата : Advanced [email protected]
Настройки формата : BVOP1
Параметр BVOP формата : 1
Параметр QPel формата : Нет
Параметр GMC формата : Без точки перехода
Параметр матрицы формата : Default (MPEG)
Идентификатор кодека : XVID
Идентификатор кодека/Подсказка : XviD
Продолжительность : 50 м. 30 с.
Битрейт : 1 600 Кбит/сек
Ширина : 704 пикселя
Высота : 352 пикселя
Соотношение сторон : 2,000
Частота кадров : 23,976 (24000/1001) кадра/сек
Цветовое пространство : YUV
Субдискретизация насыщенности : 4:2:0
Битовая глубина : 8 бит
Тип развёртки : Прогрессивная
Метод сжатия : С потерями
Бит/(Пиксели*Кадры) : 0.269
Размер потока : 578 Мбайт (80%)
Библиотека кодирования : XviD 67

Аудио #1
Идентификатор : 1
Формат : AC-3
Формат/Информация : Audio Coding 3
Коммерческое название : Dolby Digital
Идентификатор кодека : 2000
Продолжительность : 50 м. 30 с.
Вид битрейта : Постоянный
Битрейт : 192 Кбит/сек
Каналы : 2 канала
Channel layout : L R
Частота : 48,0 КГц
Частота кадров : 31,250 кадров/сек (1536 SPF)
Метод сжатия : С потерями
Размер потока : 69,4 Мбайт (10%)
Выравнивание : Разделение по промежуткам
Продолжительность промежутка : 42 мс. (1,00 видеокадр)
Время предзагрузки промежутка : 500 мс.
Service kind : Complete Main

Аудио #2
Идентификатор : 2
Формат : AC-3
Формат/Информация : Audio Coding 3
Коммерческое название : Dolby Digital
Идентификатор кодека : 2000
Продолжительность : 50 м. 30 с.
Вид битрейта : Постоянный
Битрейт : 192 Кбит/сек
Каналы : 2 канала
Channel layout : L R
Частота : 48,0 КГц
Частота кадров : 31,250 кадров/сек (1536 SPF)
Метод сжатия : С потерями
Размер потока : 69,4 Мбайт (10%)
Выравнивание : Разделение по промежуткам
Продолжительность промежутка : 42 мс. (1,00 видеокадр)
Время предзагрузки промежутка : 500 мс.
Service kind : Complete Main

Этот торрент недоступен для скачивания без регистрации, однако доступен по публичной magnet-ссылке (источники с публичных трекеров). Перед использованием ссылки прочтите, пожалуйста Пользовательское соглашение, а также как можно дольше оставайтесь на раздаче! Для того, чтобы скачать сам торрент-файл (который видит больше источников), а также для того, чтобы поблагодарить релизера, вам необходимо зарегистрироваться. Если регистрироваться лень - вы можете также попробовать скачать релиз по нашим партнерским ссылкам ниже. Кроме того, зарегистрированным пользователям не показывается всплывающая реклама при скачивании.

[underver.se].t243208.torrent
Трекер: Зарегистрирован   [ 16.06.2022 07:29 ]  
Статус: проверено (by Robbertta at 16.06.2022 12:00)
Поблагодарили: пока никто не поблагодарил...
Тип торрента: публичный - доступные источники с открытых трекеров: 
Размер: 6.39 GB (занимает 1.46 DVDR, для записи нужно 2 болванки DVDR/RW)
 
 

Яндекс.Метрика powered by Sphinx


В Н И М А Н И Е
Сайт не распространяет и не хранит электронные версии произведений, а лишь бесплатно и без коммерческой выгоды (не требуя взамен платы,
SMS и т.д.) предоставляет доступ к создаваемому пользователями каталогу ссылок на торрент-файлы, которые содержат только списки хеш-сумм.
Убедительная просьба с жалобами обращаться напрямую к пользователю, разместившему торрент файл.

Вверх