Loading...
Error

Аванпост / The Outpost / Сезон: 4 / Серии: 1-13 из 13 (Милан Тодорович, Курт Найт, Марк Роскин) [2021, фэнтези, боевик, драма, приключения, WEB-DLRip] MVO (LostFilm) + Original

Статистика раздачи
Размер:  7.71 GB   |    Зарегистрирован:  3 месяца 9 дней   |    Скачан:  3 раза

Полного источника не было: 3 месяца 6 дней

Сидов:  0  |  0 KB/s  ]   Личеров:  0  |  0 KB/s  ]

* - сиды/пиры с внешних источников

   
 
Автор Сообщение

Renesans Пол:Муж

16-Июн-2022 13:29

Аванпост




Страна: США
Жанр: Фэнтези, боевик, драма, приключения
Продолжительность: ~ 00:42:30
Перевод: Профессиональный (многоголосый закадровый) - LostFilm
Режиссёр: Милан Тодорович, Курт Найт, Марк Роскин

В ролях: Джессика Грин, Джейк Стормоен, Эндрю Ховард, Имоджен Уотерхаус, Ананд Десаи-Барочиа, Робин Малкольм, Кристиан Нэрн
Описание: В центре сюжета эпичной фэнтезийной саги — девушка по имени Коготь (Джессика Грин), являющаяся последней представительницей расы чернокровок. После того, как ее родную деревню разграбила банда жестоких наемников, она поклялась отомстить за гибель родных и близких. Поиски виновных в вероломном преступлении приводят главную героиню в загадочную крепость на краю цивилизованного мира. Чтобы реализовать план мести и защитить сказочных жителей Аванпоста от фанатичного религиозного диктатора, Коготь придется пустить в дело свои новоприобретенные сверхъестественные способности...

Качество: WEB-DLRip
Формат: AVI
Видео: XviD, 720x400 (16:9), 23.976 fps, 1600 Kbps
Аудио 1: AC3, 48.0 KHz, 2 ch, 192 kbps [Rus]
Аудио 2: AC3, 48.0 KHz, 2 ch, 192 kbps [Eng]
Субтитры: Отсутствуют
Реклама:Отсутствует
01 - Кто-то должен править / Someone Has to Rule
02 - Трон, милый трон / A Throne of Our Own
03 - Боги благодарят вас / The Gods Thank You
04 - Навстречу богам / Going to Meet the Gods
05 - У них черная кровь / They Bleed Black Blood
06 - Только и делаем, что прощаемся / All We Do Is Say Goodbye
07 - Сила хозяев / The Power of the Masters
08 - Прекрасные голоса Хозяев / The Pleasing Voice of the Masters
09 - Цена бессмертия / The Price of Immortality
10 - Ради чего жить / Something to Live For
11 - Хранитель астеркинжа / Guardian of the Asterkinj
12 - Предатель / The Betrayer
13 - Ничто не вечно / Nothing Lasts Forever
 
Общее
Полное имя : E:\The.Outpost.S04.AMZN.WEB-DLRip.LF\The.Outpost.S04E01.avi
Формат : AVI
Формат/Информация : Audio Video Interleave
Размер файла : 607 Мбайт
Продолжительность : 42 м. 29 с.
Общий поток : 1 998 Кбит/сек
Программа кодирования : VirtualDubMod 1.5.10.3 (build 2550/release)
Библиотека кодирования : VirtualDubMod build 2550/release

Видео
Идентификатор : 0
Формат : MPEG-4 Visual
Профиль формата : Advanced [email protected]
Настройки формата : BVOP1
Параметр BVOP формата : 1
Параметр QPel формата : Нет
Параметр GMC формата : Без точки перехода
Параметр матрицы формата : Default (MPEG)
Идентификатор кодека : XVID
Идентификатор кодека/Подсказка : XviD
Продолжительность : 42 м. 29 с.
Битрейт : 1 600 Кбит/сек
Ширина : 720 пикселей
Высота : 400 пикселей
Соотношение сторон : 16:9
Частота кадров : 23,976 (24000/1001) кадра/сек
Цветовое пространство : YUV
Субдискретизация насыщенности : 4:2:0
Битовая глубина : 8 бит
Тип развёртки : Прогрессивная
Метод сжатия : С потерями
Бит/(Пиксели*Кадры) : 0.232
Размер потока : 486 Мбайт (80%)
Библиотека кодирования : XviD 67

Аудио #1
Идентификатор : 1
Формат : AC-3
Формат/Информация : Audio Coding 3
Коммерческое название : Dolby Digital
Идентификатор кодека : 2000
Продолжительность : 42 м. 29 с.
Вид битрейта : Постоянный
Битрейт : 192 Кбит/сек
Каналы : 2 канала
Channel layout : L R
Частота : 48,0 КГц
Частота кадров : 31,250 кадров/сек (1536 SPF)
Метод сжатия : С потерями
Размер потока : 58,4 Мбайт (10%)
Выравнивание : Разделение по промежуткам
Продолжительность промежутка : 42 мс. (1,00 видеокадр)
Время предзагрузки промежутка : 500 мс.
Service kind : Complete Main

Аудио #2
Идентификатор : 2
Формат : AC-3
Формат/Информация : Audio Coding 3
Коммерческое название : Dolby Digital
Идентификатор кодека : 2000
Продолжительность : 42 м. 29 с.
Вид битрейта : Постоянный
Битрейт : 192 Кбит/сек
Каналы : 2 канала
Channel layout : L R
Частота : 48,0 КГц
Частота кадров : 31,250 кадров/сек (1536 SPF)
Метод сжатия : С потерями
Размер потока : 58,4 Мбайт (10%)
Выравнивание : Разделение по промежуткам
Продолжительность промежутка : 42 мс. (1,00 видеокадр)
Время предзагрузки промежутка : 500 мс.
Service kind : Complete Main

Этот торрент недоступен для скачивания без регистрации, однако доступен по публичной magnet-ссылке (источники с публичных трекеров). Перед использованием ссылки прочтите, пожалуйста Пользовательское соглашение, а также как можно дольше оставайтесь на раздаче! Для того, чтобы скачать сам торрент-файл (который видит больше источников), а также для того, чтобы поблагодарить релизера, вам необходимо зарегистрироваться. Если регистрироваться лень - вы можете также попробовать скачать релиз по нашим партнерским ссылкам ниже. Кроме того, зарегистрированным пользователям не показывается всплывающая реклама при скачивании.

[underver.se].t243221.torrent
Трекер: Зарегистрирован   [ 16.06.2022 13:29 ]  
Статус: проверено (by Robbertta at 16.06.2022 13:57)
Поблагодарили: пока никто не поблагодарил...
Тип торрента: публичный - доступные источники с открытых трекеров: 
Размер: 7.71 GB (занимает 1.76 DVDR, для записи нужно 2 болванки DVDR/RW)
 
 

Яндекс.Метрика powered by Sphinx


В Н И М А Н И Е
Сайт не распространяет и не хранит электронные версии произведений, а лишь бесплатно и без коммерческой выгоды (не требуя взамен платы,
SMS и т.д.) предоставляет доступ к создаваемому пользователями каталогу ссылок на торрент-файлы, которые содержат только списки хеш-сумм.
Убедительная просьба с жалобами обращаться напрямую к пользователю, разместившему торрент файл.

Вверх