Loading...
Error

Старгёрл / Stargirl (2 сезон: 1-13 серии из 13) (Энди Армаганян, Грег Биман, Тамра Дэвис) [2021, фантастика, фэнтези, боевик, драма, криминал, WEB-DLRip] MVO (Lostfilm) + Original

Статистика раздачи
Размер:  7.47 GB   |    Зарегистрирован:  3 месяца 17 дней   |    Скачан:  4 раза

Полного источника не было: 12 часов

Сидов:  0  |  0 KB/s  ]   Личеров:  0  |  0 KB/s  ]

* - сиды/пиры с внешних источников

   
 
Автор Сообщение

Renesans Пол:Муж

16-Июн-2022 15:32

Старгёрл

Год выпуска: 2021
Страна: США
Жанр: фантастика, фэнтези, боевик, драма, криминал
Продолжительность: ~ 00:42:00
Перевод: Профессиональный (многоголосый закадровый) -LostFilm
Режиссёр: Энди Армаганян, Грег Биман, Тамра Дэвис

В ролях: Брэк Бэссинджер, Люк Уилсон, Анжелика Вашингтон, Кэмерон Джеллман, Джоэл МакХэйл, Ивет Монреаль, Джейк Остин Уокер, Мэг Келли, Нил Джексон, Кристофер Джеймс Бэйкер, Эми Смарт, Нельсон Ли, Эрик Гойнс, Нил Хопкинс, Джой Османски, Хина Кхан, Эшли Уинфри
Описание: Молодая американка Кортни Уитмор случайно узнаёт, что её отчим был помощником супергероя. Сама же она по неизвестным пока причинам может пользоваться сверхоружием одного из таких супергероев, ушедшего из жизни. И теперь спасение мира на ней - Старгёрл. Героиня загорается идеей создания собственной команды, «Общества справедливости Америки».

Качество: WEB-DLRip
Формат: AVI
Видео: XviD, 704x320 (2.2:1), 23,976 кадров/сек, ~1600 Кбит/сек
Аудио 1: AC3, 48,0 kHz, 2 ch, 192 Кбит/сек [Rus]
Аудио 2: AC3, 48,0 kHz, 2 ch, 192 Кбит/сек [Eng]
Субтитры: Отсутствуют
Реклама: Отсутствует
01 - Летняя школа. Глава первая / Summer School: Chapter One
02 - Летняя школа. Глава вторая / Summer School: Chapter Two
03 - Летняя школа. Глава третья / Summer School: Chapter Three
04 - Летняя школа. Глава четвертая / Summer School: Chapter Four
05 - Летняя школа. Глава пятая / Summer School: Chapter Five
06 - Летняя школа. Глава шестая / Summer School: Chapter Six
07 - Летняя школа. Глава седьмая / Summer School: Chapter Seven
08 - Летняя школа. Глава восьмая / Summer School: Chapter Eight
09 - Летняя школа. Глава девятая / Summer School: Chapter Nine
10 - Летняя школа. Глава десятая / Summer School: Chapter Ten
11 - Летняя школа. Глава одиннадцатая / Summer School: Chapter Eleven
12 - Летняя школа. Глава двенадцатая / Summer School: Chapter Twelve
13 - Летняя школа. Глава тринадцатая / Summer School: Chapter Thirteen
 
Общее
Полное имя Stargirl.S02.WEB-DLRip.LF\Stargirl.S02E01.WEB-DLRip.LF.avi
Формат : AVI
Формат/Информация : Audio Video Interleave
Размер файла : 606 Мбайт
Продолжительность : 42 м. 23 с.
Общий поток : 1 998 Кбит/сек
Программа кодирования : VirtualDubMod 1.5.10.3 (build 2550/release)
Библиотека кодирования : VirtualDubMod build 2550/release

Видео
Идентификатор : 0
Формат : MPEG-4 Visual
Профиль формата : Advanced [email protected]
Настройки формата : BVOP1
Параметр BVOP формата : 1
Параметр QPel формата : Нет
Параметр GMC формата : Без точки перехода
Параметр матрицы формата : Default (MPEG)
Идентификатор кодека : XVID
Идентификатор кодека/Подсказка : XviD
Продолжительность : 42 м. 23 с.
Битрейт : 1 600 Кбит/сек
Ширина : 704 пикселя
Высота : 320 пикселей
Соотношение сторон : 2,2:1
Частота кадров : 23,976 (24000/1001) кадра/сек
Цветовое пространство : YUV
Субдискретизация насыщенности : 4:2:0
Битовая глубина : 8 бит
Тип развёртки : Прогрессивная
Метод сжатия : С потерями
Бит/(Пиксели*Кадры) : 0.296
Размер потока : 485 Мбайт (80%)
Библиотека кодирования : XviD 67

Аудио #1
Идентификатор : 1
Формат : AC-3
Формат/Информация : Audio Coding 3
Коммерческое название : Dolby Digital
Идентификатор кодека : 2000
Продолжительность : 42 м. 23 с.
Вид битрейта : Постоянный
Битрейт : 192 Кбит/сек
Каналы : 2 канала
Channel layout : L R
Частота : 48,0 КГц
Частота кадров : 31,250 кадров/сек (1536 SPF)
Метод сжатия : С потерями
Размер потока : 58,2 Мбайт (10%)
Выравнивание : Разделение по промежуткам
Продолжительность промежутка : 42 мс. (1,00 видеокадр)
Время предзагрузки промежутка : 500 мс.
Service kind : Complete Main

Аудио #2
Идентификатор : 2
Формат : AC-3
Формат/Информация : Audio Coding 3
Коммерческое название : Dolby Digital
Идентификатор кодека : 2000
Продолжительность : 42 м. 23 с.
Вид битрейта : Постоянный
Битрейт : 192 Кбит/сек
Каналы : 2 канала
Channel layout : L R
Частота : 48,0 КГц
Частота кадров : 31,250 кадров/сек (1536 SPF)
Метод сжатия : С потерями
Размер потока : 58,2 Мбайт (10%)
Выравнивание : Разделение по промежуткам
Продолжительность промежутка : 42 мс. (1,00 видеокадр)
Время предзагрузки промежутка : 500 мс.
Service kind : Complete Main

Этот торрент недоступен для скачивания без регистрации, однако доступен по публичной magnet-ссылке (источники с публичных трекеров). Перед использованием ссылки прочтите, пожалуйста Пользовательское соглашение, а также как можно дольше оставайтесь на раздаче! Для того, чтобы скачать сам торрент-файл (который видит больше источников), а также для того, чтобы поблагодарить релизера, вам необходимо зарегистрироваться. Если регистрироваться лень - вы можете также попробовать скачать релиз по нашим партнерским ссылкам ниже. Кроме того, зарегистрированным пользователям не показывается всплывающая реклама при скачивании.

[underver.se].t243222.torrent
Трекер: Зарегистрирован   [ 16.06.2022 15:32 ]  
Статус: проверено (by Robbertta at 16.06.2022 15:47)
Поблагодарили: пока никто не поблагодарил...
Тип торрента: публичный - доступные источники с открытых трекеров: 
Размер: 7.47 GB (занимает 1.71 DVDR, для записи нужно 2 болванки DVDR/RW)
 
 

Яндекс.Метрика powered by Sphinx


В Н И М А Н И Е
Сайт не распространяет и не хранит электронные версии произведений, а лишь бесплатно и без коммерческой выгоды (не требуя взамен платы,
SMS и т.д.) предоставляет доступ к создаваемому пользователями каталогу ссылок на торрент-файлы, которые содержат только списки хеш-сумм.
Убедительная просьба с жалобами обращаться напрямую к пользователю, разместившему торрент файл.

Вверх