Loading...
Error

Роковой патруль / Doom Patrol (3 сезон: 1-10 серии из 10) (Крис Мэнли, Гарри Жиержиан, Дермотт Даунс) [2021, фантастика, боевик, драма, комедия, детектив, WEB-DLRip] MVO (LostFilm) + Original

Статистика раздачи
Размер:  7.23 GB   |    Зарегистрирован:  3 месяца 16 дней   |    Скачан:  7 раз

Полного источника не было: 1 месяц 21 день

Сидов:  0  |  0 KB/s  ]   Личеров:  0  |  0 KB/s  ]

* - сиды/пиры с внешних источников

   
 
Автор Сообщение

Renesans Пол:Муж

18-Июн-2022 05:08

Роковой патруль


Год выпуска: 2021
Страна: США
Жанр: фантастика, боевик, драма, комедия, детектив
Продолжительность: ~ 00:55:00
Перевод: Профессиональный (многоголосый закадровый) - LostFilm
Режиссёр: Крис Мэнли, Гарри Жиержиан, Дермотт Даунс

В ролях: Дайан Герерро, Эйприл Боулби, Мэтт Бомер, Тимоти Далтон, Райли Шэнэхэн, Мэттью Зук, Брендан Фрейзер, Алан Тьюдик, Джоиван Уэйд, Кайл Расселл Клементс
Описание: Разбившийся в аварии гонщик, получивший заряд радиации пилот, девушка с 64 личностями, изуродованная актриса, парень-киборг и во главе этого всего - сумасшедший учёный. Эти неудачники и жалкие ничтожества становятся супергероями. Они находят своим сверхспособностям применение, а себе — новый смысл жизни. Теперь они — Роботмен, Негативный Человек, Безумная Джейн, Эласти-гёрл и Киборг.

Качество: WEB-DLRip
Формат: AVI
Видео: XviD, 704x320, 23,976 fps, ~ 1600 kbps
Аудио 1: 48 kHz, AC3 2 ch, ~192 kbps [Rus]
Аудио 2: 48 kHz, AC3 2 ch, ~192 kbps [Eng]
Субтитры: Отсутствуют
01 - Возможный патруль / Possibilities Patrol
02 - Курортный патруль / Vacay Patrol
03 - Мертвый патруль / Dead Patrol
04 - Воскресший патруль / Undead Patrol
05 - Дадаистский патруль / Dada Patrol
06 - 1917 патруль / 1917 Patrol
07 - Птичий патруль / Bird Patrol
08 - Подсознательный патруль / Subconscious Patrol
09 - Патруль зла / Evil Patrol
10 - Простительный патруль / Amends Patrol
 
Общее
Полное имя Doom.Patrol.S03.WEB-DLRip.LF\Doom.Patrol.S03E01.avi
Формат : AVI
Формат/Информация : Audio Video Interleave
Размер файла : 803 Мбайт
Продолжительность : 56 м. 12 с.
Общий поток : 1 998 Кбит/сек
Название фильма : Doom.Patrol.S03E01
Программа кодирования : VirtualDubMod 1.5.10.3 (build 2550/release)
Библиотека кодирования : VirtualDubMod build 2550/release
Авторское право : lipovan

Видео
Идентификатор : 0
Формат : MPEG-4 Visual
Профиль формата : Advanced [email protected]
Настройки формата : BVOP1
Параметр BVOP формата : 1
Параметр QPel формата : Нет
Параметр GMC формата : Без точки перехода
Параметр матрицы формата : Default (MPEG)
Идентификатор кодека : XVID
Идентификатор кодека/Подсказка : XviD
Продолжительность : 56 м. 12 с.
Битрейт : 1 600 Кбит/сек
Ширина : 704 пикселя
Высота : 320 пикселей
Соотношение сторон : 2,2:1
Частота кадров : 23,976 (24000/1001) кадра/сек
Цветовое пространство : YUV
Субдискретизация насыщенности : 4:2:0
Битовая глубина : 8 бит
Тип развёртки : Прогрессивная
Метод сжатия : С потерями
Бит/(Пиксели*Кадры) : 0.296
Размер потока : 643 Мбайт (80%)
Библиотека кодирования : XviD 67

Аудио #1
Идентификатор : 1
Формат : AC-3
Формат/Информация : Audio Coding 3
Коммерческое название : Dolby Digital
Идентификатор кодека : 2000
Продолжительность : 56 м. 12 с.
Вид битрейта : Постоянный
Битрейт : 192 Кбит/сек
Каналы : 2 канала
Channel layout : L R
Частота : 48,0 КГц
Частота кадров : 31,250 кадров/сек (1536 SPF)
Метод сжатия : С потерями
Размер потока : 77,2 Мбайт (10%)
Выравнивание : Разделение по промежуткам
Продолжительность промежутка : 42 мс. (1,00 видеокадр)
Время предзагрузки промежутка : 500 мс.
Service kind : Complete Main

Аудио #2
Идентификатор : 2
Формат : AC-3
Формат/Информация : Audio Coding 3
Коммерческое название : Dolby Digital
Идентификатор кодека : 2000
Продолжительность : 56 м. 12 с.
Вид битрейта : Постоянный
Битрейт : 192 Кбит/сек
Каналы : 2 канала
Channel layout : L R
Частота : 48,0 КГц
Частота кадров : 31,250 кадров/сек (1536 SPF)
Метод сжатия : С потерями
Размер потока : 77,2 Мбайт (10%)
Выравнивание : Разделение по промежуткам
Продолжительность промежутка : 42 мс. (1,00 видеокадр)
Время предзагрузки промежутка : 500 мс.
Service kind : Complete Main

Этот торрент недоступен для скачивания без регистрации, однако доступен по публичной magnet-ссылке (источники с публичных трекеров). Перед использованием ссылки прочтите, пожалуйста Пользовательское соглашение, а также как можно дольше оставайтесь на раздаче! Для того, чтобы скачать сам торрент-файл (который видит больше источников), а также для того, чтобы поблагодарить релизера, вам необходимо зарегистрироваться. Если регистрироваться лень - вы можете также попробовать скачать релиз по нашим партнерским ссылкам ниже. Кроме того, зарегистрированным пользователям не показывается всплывающая реклама при скачивании.

[underver.se].t243255.torrent
Трекер: Зарегистрирован   [ 18.06.2022 05:08 ]  
Статус: проверено (by Robbertta at 19.06.2022 05:34)
Поблагодарили: пока никто не поблагодарил...
Тип торрента: публичный - доступные источники с открытых трекеров: 
Размер: 7.23 GB (занимает 1.65 DVDR, для записи нужно 2 болванки DVDR/RW)
 
 


Последний раз редактировалось: Renesans (19.06.2022 05:30), всего редактировалось 1 раз

Яндекс.Метрика powered by Sphinx


В Н И М А Н И Е
Сайт не распространяет и не хранит электронные версии произведений, а лишь бесплатно и без коммерческой выгоды (не требуя взамен платы,
SMS и т.д.) предоставляет доступ к создаваемому пользователями каталогу ссылок на торрент-файлы, которые содержат только списки хеш-сумм.
Убедительная просьба с жалобами обращаться напрямую к пользователю, разместившему торрент файл.

Вверх