Loading...
Error

Мост через реку Квай / The Bridge on the River Kwai (Дэвид Лин) [1957 г., драма, приключения, военный, BDRip-AVC] 2xMVO + AVO (Иванов, Михалёв) + Original + Sub (Rus, Eng)

Статистика раздачи
Размер:  5.25 GB   |    Зарегистрирован:  3 месяца 10 дней   |    Скачан:  5 раз

Полного источника не было: 1 месяц 19 дней

Сидов:  0  |  0 KB/s  ]   Личеров:  0  |  0 KB/s  ]

* - сиды/пиры с внешних источников

   
 
Автор Сообщение

Renesans Пол:Муж

18-Июн-2022 08:31

Мост через реку Квай / The Bridge on the River Kwai


Страна: Великобритания, США
Жанр: драма, приключения, военный
Год выпуска: 1957
Продолжительность: 02:41:28

Перевод: профессиональные многоголосые (SDI-Media; Видеосерис), авторские (Михаил Иванов; Алексей Михалёв)
Субтитры: русские, английские

Режиссёр: Дэвид Лин
В ролях: Алек Гиннесс, Уильям Холден, Джек Хоукинс, Сэссуэ Хаякава, Джеймс Дональд, Джеффри Хорн, Андре Морелл, Питер Уильямс, Джон Боксер, Перси Херберт

Описание: Фильм по одноимённому роману Пьера Буля. Захваченные в плен японцами британские солдаты и их командир полковник Николсон вынуждены строить железнодорожный мост через реку Квай в Бирме. Несмотря на свирепый характер полковника, начальника стройки, Сайто, Николсон проявляет настоящее мужество. Тем временем командование назначает группу коммандос для уничтожения этого стратегически важного объекта... Фильм получил семь премий "Оскар" (включая "Лучший фильм") на 30-й церемонии вручения премии "Оскар". В 1999 году Британский институт кино признал "Мост на реке Квай" 11-м величайшим британским фильмом 20-го века.



Качество: BDRip-AVC
Формат: MKV
Видео: MPEG-4 AVC, 1024x402, 2923 kbps, 23.976 fps
Аудио 1: AC3, 6 ch, 448 kbps, 48.0 kHz | русский (MVO SDI-Media)
Аудио 2: AC3, 6 ch, 448 kbps, 48.0 kHz | русский (MVO Видеосерис)
Аудио 3: AC3, 2 ch, 192 kbps, 48.0 kHz | русский (Михаил Иванов)
Аудио 4: AC3, 2 ch, 192 kbps, 48.0 kHz | русский (Алексей Михалёв)
Аудио 5: AC3, 6 ch, 448 kbps, 48.0 kHz | английский
Субтитры 1: русские
Субтитры 2: английские
Главы/чаптеры
Общее
Уникальный идентификатор : 72665985858990326394486684046148953853 (0x36AAF5B622D143DCFF6975E94636E6FD)
Полное имя : D:VideoМост через реку Квай.1957.BDRip-AVC msltel.mkv
Формат : Matroska
Версия формата : Version 4
Размер файла : 5,25 Гбайт
Продолжительность : 2 ч. 42 м.
Общий поток : 4 639 Кбит/сек
Название фильма : Мост через реку Квай.1957.BDRip-AVC msltel
Дата кодирования : UTC 2022-06-18 01:50:48
Программа кодирования : mkvmerge v44.0.0 ('Domino') 64-bit
Библиотека кодирования : libebml v1.3.10 + libmatroska v1.5.2

Видео
Идентификатор : 1
Формат : AVC
Формат/Информация : Advanced Video Codec
Профиль формата : [email protected]
Настройки формата : CABAC / 16 Ref Frames
Параметр CABAC формата : Да
Параметр RefFrames формата : 16 кадров
Идентификатор кодека : V_MPEG4/ISO/AVC
Продолжительность : 2 ч. 41 м.
Битрейт : 2 923 Кбит/сек
Ширина : 1 024 пикселя
Высота : 402 пикселя
Соотношение сторон : 2,547
Режим частоты кадров : Постоянный
Частота кадров : 23,976 (24000/1001) кадра/сек
Цветовое пространство : YUV
Субдискретизация насыщенности : 4:2:0
Битовая глубина : 8 бит
Тип развёртки : Прогрессивная
Бит/(Пиксели*Кадры) : 0.296
Размер потока : 3,30 Гбайт (63%)
Библиотека кодирования : x264 core 164 r3085 0bb85e8
Настройки программы : cabac=1 / ref=16 / deblock=1:-3:-3 / analyse=0x3:0x113 / me=umh / subme=11 / psy=1 / psy_rd=1.00:0.00 / mixed_ref=1 / me_range=32 / chroma_me=1 / trellis=2 / 8x8dct=1 / cqm=0 / deadzone=21,11 / fast_pskip=0 / chroma_qp_offset=-2 / threads=12 / lookahead_threads=3 / sliced_threads=0 / nr=0 / decimate=0 / interlaced=0 / bluray_compat=0 / constrained_intra=0 / bframes=11 / b_pyramid=2 / b_adapt=2 / b_bias=0 / direct=1 / weightb=1 / open_gop=0 / weightp=2 / keyint=240 / keyint_min=24 / scenecut=40 / intra_refresh=0 / rc_lookahead=40 / rc=crf / mbtree=0 / crf=18.0 / qcomp=0.60 / qpmin=0 / qpmax=69 / qpstep=4 / vbv_maxrate=50000 / vbv_bufsize=62500 / crf_max=0.0 / nal_hrd=none / filler=0 / ip_ratio=1.40 / pb_ratio=1.30 / aq=3:1.00
Язык : English
Default : Да
Forced : Нет

Аудио #1
Идентификатор : 2
Формат : AC-3
Формат/Информация : Audio Coding 3
Коммерческое название : Dolby Digital
Идентификатор кодека : A_AC3
Продолжительность : 2 ч. 41 м.
Вид битрейта : Постоянный
Битрейт : 448 Кбит/сек
Каналы : 6 каналов
Channel layout : L R C LFE Ls Rs
Частота : 48,0 КГц
Частота кадров : 31,250 кадров/сек (1536 SPF)
Метод сжатия : С потерями
Размер потока : 517 Мбайт (10%)
Заголовок : MVO SDI-Media
Язык : Russian
Service kind : Complete Main
Default : Да
Forced : Нет

Аудио #2
Идентификатор : 3
Формат : AC-3
Формат/Информация : Audio Coding 3
Коммерческое название : Dolby Digital
Идентификатор кодека : A_AC3
Продолжительность : 2 ч. 42 м.
Вид битрейта : Постоянный
Битрейт : 448 Кбит/сек
Каналы : 6 каналов
Channel layout : L R C LFE Ls Rs
Частота : 48,0 КГц
Частота кадров : 31,250 кадров/сек (1536 SPF)
Метод сжатия : С потерями
Размер потока : 519 Мбайт (10%)
Заголовок : MVO Видеосерис
Язык : Russian
Service kind : Complete Main
Default : Нет
Forced : Нет

Аудио #3
Идентификатор : 4
Формат : AC-3
Формат/Информация : Audio Coding 3
Коммерческое название : Dolby Digital
Идентификатор кодека : A_AC3
Продолжительность : 2 ч. 41 м.
Вид битрейта : Постоянный
Битрейт : 192 Кбит/сек
Каналы : 2 канала
Channel layout : L R
Частота : 48,0 КГц
Частота кадров : 31,250 кадров/сек (1536 SPF)
Метод сжатия : С потерями
Размер потока : 222 Мбайт (4%)
Заголовок : Михаил Иванов
Язык : Russian
Service kind : Complete Main
Default : Нет
Forced : Нет

Аудио #4
Идентификатор : 5
Формат : AC-3
Формат/Информация : Audio Coding 3
Коммерческое название : Dolby Digital
Идентификатор кодека : A_AC3
Продолжительность : 2 ч. 41 м.
Вид битрейта : Постоянный
Битрейт : 192 Кбит/сек
Каналы : 2 канала
Channel layout : L R
Частота : 48,0 КГц
Частота кадров : 31,250 кадров/сек (1536 SPF)
Метод сжатия : С потерями
Размер потока : 222 Мбайт (4%)
Заголовок : Алексей Михалёв
Язык : Russian
Service kind : Complete Main
Default : Нет
Forced : Нет

Аудио #5
Идентификатор : 6
Формат : AC-3
Формат/Информация : Audio Coding 3
Коммерческое название : Dolby Digital
Идентификатор кодека : A_AC3
Продолжительность : 2 ч. 41 м.
Вид битрейта : Постоянный
Битрейт : 448 Кбит/сек
Каналы : 6 каналов
Channel layout : L R C LFE Ls Rs
Частота : 48,0 КГц
Частота кадров : 31,250 кадров/сек (1536 SPF)
Метод сжатия : С потерями
Размер потока : 517 Мбайт (10%)
Заголовок : оригинал
Язык : English
Service kind : Complete Main
Default : Нет
Forced : Нет

Текст #1
Идентификатор : 7
Формат : UTF-8
Идентификатор кодека : S_TEXT/UTF8
Идентификатор кодека/Информация : UTF-8 Plain Text
Продолжительность : 2 ч. 34 м.
Битрейт : 74 бит/сек
Count of elements : 1305
Размер потока : 84,7 Кбайт (0%)
Заголовок : русские
Язык : Russian
Default : Нет
Forced : Нет

Текст #2
Идентификатор : 8
Формат : UTF-8
Идентификатор кодека : S_TEXT/UTF8
Идентификатор кодека/Информация : UTF-8 Plain Text
Продолжительность : 2 ч. 39 м.
Битрейт : 47 бит/сек
Count of elements : 1447
Размер потока : 55,6 Кбайт (0%)
Заголовок : английские
Язык : English
Default : Нет
Forced : Нет

Меню
00:00:00.000 : en:00:00:00.000
00:00:16.016 : en:00:00:16.016
00:01:30.173 : en:00:01:30.173
00:02:11.256 : en:00:02:11.256
00:03:25.414 : en:00:03:25.414
00:04:06.496 : en:00:04:06.496
00:05:01.593 : en:00:05:01.593
00:06:16.751 : en:00:06:16.751
00:07:46.925 : en:00:07:46.925
00:08:38.017 : en:00:08:38.017
00:11:42.410 : en:00:11:42.410
00:12:44.555 : en:00:12:44.555
00:13:27.598 : en:00:13:27.598
00:14:22.695 : en:00:14:22.695
00:16:12.930 : en:00:16:12.930
00:17:43.145 : en:00:17:43.145
00:18:23.227 : en:00:18:23.227
00:19:55.403 : en:00:19:55.403
00:20:25.433 : en:00:20:25.433
00:21:59.652 : en:00:21:59.652
00:23:28.824 : en:00:23:28.824
00:24:18.916 : en:00:24:18.916
00:25:34.074 : en:00:25:34.074
00:27:16.260 : en:00:27:16.260
00:28:20.407 : en:00:28:20.407
00:29:34.564 : en:00:29:34.564
00:31:09.701 : en:00:31:09.701
00:32:56.933 : en:00:32:56.933
00:35:19.242 : en:00:35:19.242
00:36:17.342 : en:00:36:17.342
00:37:55.565 : en:00:37:55.565
00:39:25.738 : en:00:39:25.738
00:40:55.912 : en:00:40:55.912
00:42:01.018 : en:00:42:01.018
00:43:26.187 : en:00:43:26.187
00:44:59.405 : en:00:44:59.405
00:46:31.580 : en:00:46:31.580
00:48:42.837 : en:00:48:42.837
00:50:07.004 : en:00:50:07.004
00:51:07.147 : en:00:51:07.147
00:52:31.273 : en:00:52:31.273
00:53:40.426 : en:00:53:40.426
00:55:37.668 : en:00:55:37.668
00:56:47.821 : en:00:56:47.821
00:58:20.997 : en:00:58:20.997
00:59:43.163 : en:00:59:43.163
01:01:38.403 : en:01:01:38.403
01:02:38.505 : en:01:02:38.505
01:03:55.665 : en:01:03:55.665
01:05:18.832 : en:01:05:18.832
01:06:49.005 : en:01:06:49.005
01:08:36.237 : en:01:08:36.237
01:09:44.347 : en:01:09:44.347
01:11:26.574 : en:01:11:26.574
01:13:31.824 : en:01:13:31.824
01:14:34.887 : en:01:14:34.887
01:15:40.077 : en:01:15:40.077
01:16:15.154 : en:01:16:15.154
01:17:40.322 : en:01:17:40.322
01:19:10.496 : en:01:19:10.496
01:21:05.694 : en:01:21:05.694
01:22:15.848 : en:01:22:15.848
01:23:25.959 : en:01:23:25.959
01:24:29.147 : en:01:24:29.147
01:25:36.256 : en:01:25:36.256
01:27:21.486 : en:01:27:21.486
01:28:36.603 : en:01:28:36.603
01:29:16.685 : en:01:29:16.685
01:29:56.808 : en:01:29:56.808
01:30:31.843 : en:01:30:31.843
01:31:06.920 : en:01:31:06.920
01:32:57.155 : en:01:32:57.155
01:34:12.272 : en:01:34:12.272
01:35:28.431 : en:01:35:28.431
01:36:57.603 : en:01:36:57.603
01:38:42.834 : en:01:38:42.834
01:40:02.955 : en:01:40:02.955
01:41:43.180 : en:01:41:43.180
01:42:34.273 : en:01:42:34.273
01:43:43.426 : en:01:43:43.426
01:45:03.589 : en:01:45:03.589
01:46:15.744 : en:01:46:15.744
01:47:33.989 : en:01:47:33.989
01:47:41.914 : en:01:47:41.914
01:48:25.999 : en:01:48:25.999
01:49:34.109 : en:01:49:34.109
01:51:39.401 : en:01:51:39.401
01:52:51.515 : en:01:52:51.515
01:53:31.596 : en:01:53:31.596
01:54:44.753 : en:01:54:44.753
01:57:00.013 : en:01:57:00.013
01:57:55.151 : en:01:57:55.151
01:59:20.278 : en:01:59:20.278
02:01:51.638 : en:02:01:51.638
02:02:30.677 : en:02:02:30.677
02:03:52.842 : en:02:03:52.842
02:04:25.917 : en:02:04:25.917
02:05:28.020 : en:02:05:28.020
02:07:43.322 : en:02:07:43.322
02:08:31.412 : en:02:08:31.412
02:09:28.511 : en:02:09:28.511
02:10:54.680 : en:02:10:54.680
02:11:56.826 : en:02:11:56.826
02:13:26.957 : en:02:13:26.957
02:13:52.024 : en:02:13:52.024
02:15:30.247 : en:02:15:30.247
02:16:45.364 : en:02:16:45.364
02:18:37.643 : en:02:18:37.643
02:21:32.943 : en:02:21:32.943
02:23:43.198 : en:02:23:43.198
02:24:48.346 : en:02:24:48.346
02:26:35.578 : en:02:26:35.578
02:27:38.683 : en:02:27:38.683
02:30:44.035 : en:02:30:44.035
02:32:29.265 : en:02:32:29.265
02:34:29.510 : en:02:34:29.510
02:35:24.607 : en:02:35:24.607
02:37:11.839 : en:02:37:11.839
02:38:06.977 : en:02:38:06.977
02:38:40.010 : en:02:38:40.010
02:39:25.097 : en:02:39:25.097
02:40:05.179 : en:02:40:05.179
02:40:56.272 : en:02:40:56.272

Этот торрент недоступен для скачивания без регистрации, однако доступен по публичной magnet-ссылке (источники с публичных трекеров). Перед использованием ссылки прочтите, пожалуйста Пользовательское соглашение, а также как можно дольше оставайтесь на раздаче! Для того, чтобы скачать сам торрент-файл (который видит больше источников), а также для того, чтобы поблагодарить релизера, вам необходимо зарегистрироваться. Если регистрироваться лень - вы можете также попробовать скачать релиз по нашим партнерским ссылкам ниже. Кроме того, зарегистрированным пользователям не показывается всплывающая реклама при скачивании.

[underver.se].t243261.torrent
Трекер: Зарегистрирован   [ 18.06.2022 08:31 ]  
Статус: проверено (by Robbertta at 18.06.2022 09:16)
Поблагодарили: 1 человек
Тип торрента: публичный - доступные источники с открытых трекеров: 
Размер: 5.25 GB (занимает 1.2 DVDR, для записи нужно 2 болванки DVDR/RW)
 
 

Яндекс.Метрика powered by Sphinx


В Н И М А Н И Е
Сайт не распространяет и не хранит электронные версии произведений, а лишь бесплатно и без коммерческой выгоды (не требуя взамен платы,
SMS и т.д.) предоставляет доступ к создаваемому пользователями каталогу ссылок на торрент-файлы, которые содержат только списки хеш-сумм.
Убедительная просьба с жалобами обращаться напрямую к пользователю, разместившему торрент файл.

Вверх