Loading...
Error

Девушки Зигфилда / Ziegfeld Girl (Роберт З. Леонард) [1941 г., мюзикл, драма, мелодрама, BDRip-AVC] DVO + Original (Eng)

Статистика раздачи
Размер:  2.43 GB   |    Зарегистрирован:  3 месяца 8 дней   |    Скачан:  2 раза

Полного источника не было: 3 месяца 4 дня

Сидов:  0  |  0 KB/s  ]   Личеров:  0  |  0 KB/s  ]

* - сиды/пиры с внешних источников

   
 
Автор Сообщение

Renesans Пол:Муж

22-Июн-2022 09:46

Девушки Зигфилда


Страна: США
Жанр: мюзикл, драма, мелодрама
Год выпуска: 1941
Продолжительность: 02:12:26

Перевод: профессиональный двухголосый
Субтитры: английские SDH

Режиссер-постановщик: Роберт З. Леонард
В фильме снимались: Джеймс Стюарт, Джуди Гарлэнд, Хеди Ламарр, Лана Тёрнер, Тони Мартин, Джеки Купер, Иэн Хантер, Эдвард Эверетт Хортон, Чарльз Уиннингер, Филип Дорн

Описание: их роли различны, но сцена объединила их судьбы в одну. Сюзен - профессиональная певица, живущая со старым эксцентричным папашей-композитором, Шейла - симпатичная блондинка с рабочей окраины, делящая постель с пожилым миллионером, а Сандра - жена безработного скрипача, который не может вырваться из душевного кризиса. С этого дня девушкам надо забыть обо всём, что их тревожит, ведь теперь они «Девушки Зигфилда» - лучшие модели Бродвея. У каждой из них появился шанс изменить свою жизнь и стать суперзвездой грандиозного музыкального представления. Но у любого шоу есть финал, и для каждой из участниц он не будет одинаков...


Качество: BDRip-AVC
Формат: MKV
Видео: MPEG-4 AVC, 790x576, 2240 kbps, 23.976 fps
Звук 1: AC3, 2 ch, 192 kbps, 48.0 kHz | русский (DVO)
Звук 2: AC3, 2 ch, 192 kbps, 48.0 kHz | английский
Субтитры: английские SDH
Главы/чаптеры
Общее
Уникальный идентификатор : 203264090484712834650233360808353100890 (0x98EB3D66B2FACE7A71AA239A678A745A)
Полное имя : D:VideoДевушки Зигфилда.1941.BDRip-AVC msltel.mkv
Формат : Matroska
Версия формата : Version 4
Размер файла : 2,43 Гбайт
Продолжительность : 2 ч. 12 м.
Общий поток : 2 626 Кбит/сек
Название фильма : Девушки Зигфилда.1941.BDRip-AVC msltel
Дата кодирования : UTC 2022-06-22 01:10:03
Программа кодирования : mkvmerge v44.0.0 ('Domino') 64-bit
Библиотека кодирования : libebml v1.3.10 + libmatroska v1.5.2

Видео
Идентификатор : 1
Формат : AVC
Формат/Информация : Advanced Video Codec
Профиль формата : [email protected]
Настройки формата : CABAC / 16 Ref Frames
Параметр CABAC формата : Да
Параметр RefFrames формата : 16 кадров
Идентификатор кодека : V_MPEG4/ISO/AVC
Продолжительность : 2 ч. 12 м.
Битрейт : 2 240 Кбит/сек
Ширина : 790 пикселей
Высота : 576 пикселей
Соотношение сторон : 1,372
Режим частоты кадров : Постоянный
Частота кадров : 23,976 (24000/1001) кадра/сек
Цветовое пространство : YUV
Субдискретизация насыщенности : 4:2:0
Битовая глубина : 8 бит
Тип развёртки : Прогрессивная
Бит/(Пиксели*Кадры) : 0.205
Размер потока : 2,07 Гбайт (85%)
Библиотека кодирования : x264 core 164 r3085 0bb85e8
Настройки программы : cabac=1 / ref=16 / deblock=1:-3:-3 / analyse=0x3:0x113 / me=umh / subme=11 / psy=1 / psy_rd=1.00:0.00 / mixed_ref=1 / me_range=32 / chroma_me=1 / trellis=2 / 8x8dct=1 / cqm=0 / deadzone=21,11 / fast_pskip=0 / chroma_qp_offset=-2 / threads=12 / lookahead_threads=2 / sliced_threads=0 / nr=0 / decimate=0 / interlaced=0 / bluray_compat=0 / constrained_intra=0 / bframes=9 / b_pyramid=2 / b_adapt=2 / b_bias=0 / direct=1 / weightb=1 / open_gop=0 / weightp=2 / keyint=240 / keyint_min=24 / scenecut=40 / intra_refresh=0 / rc_lookahead=40 / rc=crf / mbtree=0 / crf=18.0 / qcomp=0.60 / qpmin=0 / qpmax=69 / qpstep=4 / vbv_maxrate=50000 / vbv_bufsize=62500 / crf_max=0.0 / nal_hrd=none / filler=0 / ip_ratio=1.40 / pb_ratio=1.30 / aq=3:1.00
Язык : English
Default : Да
Forced : Нет

Аудио #1
Идентификатор : 2
Формат : AC-3
Формат/Информация : Audio Coding 3
Коммерческое название : Dolby Digital
Идентификатор кодека : A_AC3
Продолжительность : 2 ч. 12 м.
Вид битрейта : Постоянный
Битрейт : 192 Кбит/сек
Каналы : 2 канала
Channel layout : L R
Частота : 48,0 КГц
Частота кадров : 31,250 кадров/сек (1536 SPF)
Метод сжатия : С потерями
Размер потока : 182 Мбайт (7%)
Заголовок : DVO
Язык : Russian
Service kind : Complete Main
Default : Да
Forced : Нет

Аудио #2
Идентификатор : 3
Формат : AC-3
Формат/Информация : Audio Coding 3
Коммерческое название : Dolby Digital
Идентификатор кодека : A_AC3
Продолжительность : 2 ч. 12 м.
Вид битрейта : Постоянный
Битрейт : 192 Кбит/сек
Каналы : 2 канала
Channel layout : L R
Частота : 48,0 КГц
Частота кадров : 31,250 кадров/сек (1536 SPF)
Метод сжатия : С потерями
Размер потока : 182 Мбайт (7%)
Заголовок : оригинал
Язык : English
Service kind : Complete Main
Default : Нет
Forced : Нет

Текст
Идентификатор : 4
Формат : UTF-8
Идентификатор кодека : S_TEXT/UTF8
Идентификатор кодека/Информация : UTF-8 Plain Text
Продолжительность : 2 ч. 12 м.
Битрейт : 77 бит/сек
Count of elements : 2442
Размер потока : 75,5 Кбайт (0%)
Заголовок : английские SDH
Язык : English
Default : Нет
Forced : Нет

Меню
00:00:00.000 : en:Глава 01
00:01:35.637 : en:Глава 02
00:06:30.599 : en:Глава 03
00:09:06.755 : en:Глава 04
00:10:52.402 : en:Глава 05
00:13:32.395 : en:Глава 06
00:20:13.796 : en:Глава 07
00:22:35.396 : en:Глава 08
00:24:34.139 : en:Глава 09
00:28:10.188 : en:Глава 10
00:29:20.968 : en:Глава 11
00:32:57.058 : en:Глава 12
00:36:04.537 : en:Глава 13
00:40:01.107 : en:Глава 14
00:42:19.746 : en:Глава 15
00:44:31.419 : en:Глава 16
00:50:23.437 : en:Глава 17
00:54:38.817 : en:Глава 18
00:57:12.095 : en:Глава 19
01:00:16.446 : en:Глава 20
01:01:56.922 : en:Глава 21
01:06:36.951 : en:Глава 22
01:10:08.037 : en:Глава 23
01:14:15.034 : en:Глава 24
01:20:13.308 : en:Глава 25
01:23:37.137 : en:Глава 26
01:27:57.272 : en:Глава 27
01:29:52.887 : en:Глава 28
01:35:08.286 : en:Глава 29
01:37:43.900 : en:Глава 30
01:43:18.984 : en:Глава 31
01:44:51.202 : en:Глава 32
01:46:24.461 : en:Глава 33
01:48:47.521 : en:Глава 34
01:52:50.681 : en:Глава 35
02:00:29.973 : en:Глава 36
02:02:21.251 : en:Глава 37
02:04:40.223 : en:Глава 38
02:08:22.653 : en:Глава 39
02:09:53.077 : en:Глава 40
02:10:38.414 : en:Глава 41
02:11:40.226 : en:Глава 42

Этот торрент недоступен для скачивания без регистрации, однако доступен по публичной magnet-ссылке (источники с публичных трекеров). Перед использованием ссылки прочтите, пожалуйста Пользовательское соглашение, а также как можно дольше оставайтесь на раздаче! Для того, чтобы скачать сам торрент-файл (который видит больше источников), а также для того, чтобы поблагодарить релизера, вам необходимо зарегистрироваться. Если регистрироваться лень - вы можете также попробовать скачать релиз по нашим партнерским ссылкам ниже. Кроме того, зарегистрированным пользователям не показывается всплывающая реклама при скачивании.

[underver.se].t243371.torrent
Трекер: Зарегистрирован   [ 22.06.2022 09:46 ]  
Статус: проверено (by Robbertta at 22.06.2022 10:14)
Поблагодарили: пока никто не поблагодарил...
Тип торрента: публичный - доступные источники с открытых трекеров: 
Размер: 2.43 GB (занимает 0.56 DVDR, для записи нужно 1 болванка DVDR/RW)
 
 

Яндекс.Метрика powered by Sphinx


В Н И М А Н И Е
Сайт не распространяет и не хранит электронные версии произведений, а лишь бесплатно и без коммерческой выгоды (не требуя взамен платы,
SMS и т.д.) предоставляет доступ к создаваемому пользователями каталогу ссылок на торрент-файлы, которые содержат только списки хеш-сумм.
Убедительная просьба с жалобами обращаться напрямую к пользователю, разместившему торрент файл.

Вверх