Loading...
Error

Змеиное яйцо / The Serpent's Egg (Ингмар Бергман) [1977 г., триллер, драма, детектив, BDRip] MVO (СВ-Кадр) + Sub (Rus) + Original (Eng)

Статистика раздачи
Размер:  1.46 GB   |    Зарегистрирован:  2 месяца 29 дней   |    Скачан:  4 раза

Полного источника не было: 2 месяца 5 дней

Сидов:  0  |  0 KB/s  ]   Личеров:  0  |  0 KB/s  ]

* - сиды/пиры с внешних источников

   
 
Автор Сообщение

Renesans Пол:Муж

26-Июн-2022 17:56

Змеиное яйцо / The Serpent's Egg


Страна: США, ФРГ
Жанр: триллер, драма, детектив
Год выпуска: 1977
Продолжительность: 01:59:30

Перевод: Профессиональный (многоголосый закадровый) - СВ-Кадр
Субтитры: русские, английские (полные, для слабослышащих)
Оригинальная аудиодорожка: английский

Режиссер: Ингмар Бергман / Ingmar Bergman

В ролях: Лив Ульман, Дэвид Кэррадайн, Герт Фрёбе, Джеймс Уитмор ст., Кристиан Беркель, Фолькерт Крэфт, Гриша Хубер, Клаус Хоффманн, Кай Фишер, Эмил Файст, Габи Дом, Пол Беркс, Лизи Мангольд, Паула Браэнд, Кира Младек, Тони Бергер, Гюнтер Майснер, Георг Хартманн, Хайнц Беннент, Глинн Терман, Эрна Брюнелл, Эллен Умлауф, Гюнтер Мальзахер, Хайде Пича, Вольфганг Вайзер

Описание: Американец Абель Розенберг вместе с братом и его женой приезжает в Германию. По загадочным причинам брат кончает жизнь самоубийством. Мануэлла становится проституткой. Поиски работы приводят Абеля в клинику Святой Анны, где он раскрывает жуткую тайну психологических и химических экспериментов над людьми...

Сэмпл

Качество видео: BDRip
Формат видео: AVI

Видео: 720x432 (1.67:1), 23.976 fps, XviD build 73 ~1351 kbps avg, 0.18 bit/pixel
Аудио: 48 kHz, AC3 Dolby Digital, 1/0 (C) ch, ~192 kbps - многоголосый
Аудио: 48 kHz, AC3 Dolby Digital, 1/0 (C) ch, ~192 kbps - оригинал
Формат субтитров: softsub (SRT)
 
Общее
Полное имя : H:\The.Serpent's.Egg.1977.BDRip_[1.46]_[teko]\The.Serpent's.Egg.1977.BDRip_[1.46].avi
Формат : AVI
Формат/Информация : Audio Video Interleave
Размер файла : 1,46 Гбайт
Продолжительность : 1 ч. 59 м.
Общий поток : 1750 Кбит/сек
Программа кодирования : VirtualDubMod 1.5.10.3 | www.virtualdub-fr.org || (build 2550/release)
Библиотека кодирования : VirtualDubMod build 2550/release

Видео
Идентификатор : 0
Формат : MPEG-4 Visual
Профиль формата : Advanced [email protected]
Настройки формата : BVOP2 / Custom Matrix
Параметр BVOP формата : 2
Параметр QPel формата : Нет
Параметр GMC формата : Без точки перехода
Параметр матрицы формата : Выборочная
Идентификатор кодека : XVID
Идентификатор кодека/Подсказка : XviD
Продолжительность : 1 ч. 59 м.
Битрейт : 1352 Кбит/сек
Ширина : 720 пикселей
Высота : 432 пикселя
Соотношение сторон : 5:3
Частота кадров : 23,976 (24000/1001) кадра/сек
Цветовое пространство : YUV
Субдискретизация насыщенности : 4:2:0
Битовая глубина : 8 бит
Тип развёртки : Прогрессивная
Метод сжатия : С потерями
Бит/(Пиксели*Кадры) : 0.181
Размер потока : 1,13 Гбайт (77%)
Библиотека кодирования : XviD 73

Аудио #1
Идентификатор : 1
Формат : AC-3
Формат/Информация : Audio Coding 3
Коммерческое название : Dolby Digital
Идентификатор кодека : 2000
Продолжительность : 1 ч. 59 м.
Вид битрейта : Постоянный
Битрейт : 192 Кбит/сек
Каналы : 1 канал
ChannelLayout : C
Частота : 48,0 КГц
Частота кадров : 31,250 кадров/сек (1536 SPF)
Метод сжатия : С потерями
Размер потока : 164 Мбайт (11%)
Выравнивание : Разделение по промежуткам
Продолжительность промежутка : 42 мс. (1,00 видеокадр)
Время предзагрузки промежутка : 500 мс.
ServiceKind/String : Complete Main

Аудио #2
Идентификатор : 2
Формат : AC-3
Формат/Информация : Audio Coding 3
Коммерческое название : Dolby Digital
Идентификатор кодека : 2000
Продолжительность : 1 ч. 59 м.
Вид битрейта : Постоянный
Битрейт : 192 Кбит/сек
Каналы : 1 канал
ChannelLayout : C
Частота : 48,0 КГц
Частота кадров : 31,250 кадров/сек (1536 SPF)
Метод сжатия : С потерями
Размер потока : 164 Мбайт (11%)
Выравнивание : Разделение по промежуткам
Продолжительность промежутка : 42 мс. (1,00 видеокадр)
Время предзагрузки промежутка : 500 мс.
ServiceKind/String : Complete Main
Релиз группы:


Этот торрент недоступен для скачивания без регистрации, однако доступен по публичной magnet-ссылке (источники с публичных трекеров). Перед использованием ссылки прочтите, пожалуйста Пользовательское соглашение, а также как можно дольше оставайтесь на раздаче! Для того, чтобы скачать сам торрент-файл (который видит больше источников), а также для того, чтобы поблагодарить релизера, вам необходимо зарегистрироваться. Если регистрироваться лень - вы можете также попробовать скачать релиз по нашим партнерским ссылкам ниже. Кроме того, зарегистрированным пользователям не показывается всплывающая реклама при скачивании.

[underver.se].t243501.torrent
Трекер: Зарегистрирован   [ 26.06.2022 17:56 ]  
Статус: проверено (by Robbertta at 27.06.2022 05:59)
Поблагодарили: пока никто не поблагодарил...
Тип торрента: публичный - доступные источники с открытых трекеров: 
Размер: 1.46 GB (занимает 0.33 DVDR, для записи нужно 1 болванка DVDR/RW)
 
 


Последний раз редактировалось: Renesans (27.06.2022 05:48), всего редактировалось 20 раз(а)

27-Июн-2022 04:44

Топик был перенесен из форума Зарубежное кино [DVDRip, Low-Res HDRip, и т.д.] в форум Классика зарубежного кино


Robbertta
 

Яндекс.Метрика powered by Sphinx


В Н И М А Н И Е
Сайт не распространяет и не хранит электронные версии произведений, а лишь бесплатно и без коммерческой выгоды (не требуя взамен платы,
SMS и т.д.) предоставляет доступ к создаваемому пользователями каталогу ссылок на торрент-файлы, которые содержат только списки хеш-сумм.
Убедительная просьба с жалобами обращаться напрямую к пользователю, разместившему торрент файл.

Вверх