Loading...
Error

Ловец заключённых / Последний из племени людей-псов / Last of the Dogmen (Тэб Мёрфи) [1995 г., приключения, вестерн, BDRemux 1080p] DVO (НТВ) + AVO (Андрей Гаврилов) + AVO (Юрий Живов) + AVO (Александр Кашкин) + Sub (Eng) + Original (Eng)

Статистика раздачи
Размер:  30.48 GB   |    Зарегистрирован:  3 месяца 2 дня   |    Скачан:  3 раза

Полного источника не было: 19 дней

Сидов:  0  |  0 KB/s  ]   Личеров:  0  |  0 KB/s  ]

* - сиды/пиры с внешних источников

   
 
Автор Сообщение

Renesans Пол:Муж

27-Июн-2022 09:39

Ловец заключённых / Последний из племени людей-псов / Last of the Dogmen



USA Transfer | Kino Lorber



Страна: США
Студия: Carolco Pictures Inc., Chargeurs, Last of the Dogmen, Savoy Pictures
Жанр: приключения, вестерн
Год выпуска: 1995
Продолжительность: 01:58:18

Перевод: Профессиональный (двухголосый закадровый) - НТВ
Перевод: Авторский (одноголосый закадровый) - Андрей Гаврилов
Перевод: Авторский (одноголосый закадровый) - Юрий Живов
Перевод: Авторский (одноголосый закадровый) - Александр Кашкин
Субтитры: английские (полные, для слабослышащих), французские, испанские, португальские (европейские, бразильские), арабские, болгарские, голландские, греческие, вьетнамские, румынские, сербские, чешские
Оригинальная аудиодорожка: английский

Режиссер: Тэб Мёрфи / Tab Murphy

В ролях: Том Беренджер, Барбара Хёрши, Кертвуд Смит, Стив Ривис, Эндрю Миллер, Грегори Скотт Камминз, Марк Бун Джуниор, Хелен Кэлахэзен, Юджин Блэкбир, Доун Лаван

Описание: Опытнейшего следопыта Луиса Гейнса посылают поймать трех беглых преступников. Он выслеживает их, но убивают их индейцы, которых там не должно было быть. Луис, зная, что ему никто не поверит, обращается к археологу Лилиан, вместе с которой и отправляется на поиски затерянного племени. Они находят племя, живущее в долине, отрезанной от цивилизации горами, так как их предки жили столетия тому назад, переживают необыкновенные приключения. Снята картина в живописнейших горных местах.

Сэмпл |



Тип релиза: BDRemux 1080p
Контейнер: MKV
Видео: 1920x1080 (16:9), 23.976 fps, AVC, 32937 kbps, 0.676 bits/pixel
Аудио 1: Russian, 48.0 KHz, AC3, 2 ch, 192 Kbps - DVO НТВ
Аудио 2: Russian, 48.0 KHz, AC3, 2 ch, 192 Kbps - AVO Андрей Гаврилов
Аудио 3: Russian, 48.0 KHz, AC3, 2 ch, 192 Kbps - AVO Юрий Живов
Аудио 4: Russian, 48.0 KHz, AC3, 2 ch, 192 Kbps - AVO Александр Кашкин (Первомайский)
Аудио 5: English, 48.0 KHz, DTS-HD, 6 ch, 3178 Kbps/1509 Kbps - Original
Аудио 6: English, 48.0 KHz, AC3, 2 ch, 192 Kbps - Commentary by Director&Writer Tab Murphy, Producer Joel B. Michaels & Filmmaker Douglas Hosdale
Формат субтитров: softsub (SRT)
 
Общее
Уникальный идентификатор : 218213268006111230014410568651065713553 (0xA42A58C216AD154D926BE03FB4E6E391)
Полное имя : X:\Мои раздачи HD_3\Last.of.the.Dogmen.1995.Kino.Lorber.BDRemux.1080p.mkv
Формат : Matroska
Версия формата : Version 4
Размер файла : 30,5 Гбайт
Продолжительность : 1 ч. 58 м.
Режим общего битрейта : Переменный
Общий поток : 36,9 Мбит/сек
Название фильма : Last.of.the.Dogmen.1995.Kino.Lorber.BDRemux.1080p_AllFilms_teko
Дата кодирования : UTC 2022-06-25 14:39:20
Программа кодирования : mkvmerge v9.5.0 ('Quiet Fire') 64bit
Библиотека кодирования : libebml v1.3.4 + libmatroska v1.4.5
Обложка : Yes
Attachments : Last.of.the.Dogmen.1995.Banner.jpg / Last.of.the.Dogmen.1995.DVD.Cover.jpg / Last.of.the.Dogmen.1995.DVD.Print.jpg / Last.of.the.Dogmen.1995.Film.Poster.jpg / Last.of.the.Dogmen.1995.HBO.DVD.Cover.jpg / Last.of.the.Dogmen.1995.KB.BD.Front.Cover.png / Last.of.the.Dogmen.1995.Plakat.jpg / Last.of.the.Dogmen.1995.Poster.jpg / Last.of.the.Dogmen.1995.Print.jpg / Last.of.the.Dogmen.1995.Spanish.DVD.Cover.jpg

Видео
Идентификатор : 1
Формат : AVC
Формат/Информация : Advanced Video Codec
Профиль формата : [email protected]
Настройки формата : CABAC / 3 Ref Frames
Параметр CABAC формата : Да
Параметр RefFrames формата : 3 кадра
Параметр GOP формата : M=3, N=12
Идентификатор кодека : V_MPEG4/ISO/AVC
Продолжительность : 1 ч. 58 м.
Вид битрейта : Переменный
Битрейт : 32,7 Мбит/сек
Максимальный битрейт : 32,3 Мбит/сек
Ширина : 1920 пикселей
Высота : 1080 пикселей
Соотношение сторон : 16:9
Режим частоты кадров : Постоянный
Частота кадров : 23,976 (24000/1001) кадра/сек
Стандарт вещания : NTSC
Цветовое пространство : YUV
Субдискретизация насыщенности : 4:2:0
Битовая глубина : 8 бит
Тип развёртки : Прогрессивная
Бит/(Пиксели*Кадры) : 0.658
Размер потока : 27,0 Гбайт (89%)
Заголовок : Last.of.the.Dogmen.1995.Kino.Lorber.BDRemux.1080p
Язык : English
Default : Да
Forced : Нет
Цветовой диапазон : Limited
Основные цвета : BT.709
Характеристики трансфера : BT.709
Коэффициенты матрицы : BT.709

Аудио #1
Идентификатор : 2
Формат : AC-3
Формат/Информация : Audio Coding 3
Коммерческое название : Dolby Digital
Идентификатор кодека : A_AC3
Продолжительность : 1 ч. 58 м.
Вид битрейта : Постоянный
Битрейт : 192 Кбит/сек
Каналы : 2 канала
ChannelLayout : L R
Частота : 48,0 КГц
Частота кадров : 31,250 кадров/сек (1536 SPF)
Метод сжатия : С потерями
Размер потока : 162 Мбайт (1%)
Заголовок : DVO НТВ
Язык : Russian
ServiceKind/String : Complete Main
Default : Да
Forced : Нет

Аудио #2
Идентификатор : 3
Формат : AC-3
Формат/Информация : Audio Coding 3
Коммерческое название : Dolby Digital
Идентификатор кодека : A_AC3
Продолжительность : 1 ч. 58 м.
Вид битрейта : Постоянный
Битрейт : 192 Кбит/сек
Каналы : 2 канала
ChannelLayout : L R
Частота : 48,0 КГц
Частота кадров : 31,250 кадров/сек (1536 SPF)
Метод сжатия : С потерями
Размер потока : 162 Мбайт (1%)
Заголовок : AVO Андрей Гаврилов
Язык : Russian
ServiceKind/String : Complete Main
Default : Нет
Forced : Нет

Аудио #3
Идентификатор : 4
Формат : AC-3
Формат/Информация : Audio Coding 3
Коммерческое название : Dolby Digital
Идентификатор кодека : A_AC3
Продолжительность : 1 ч. 58 м.
Вид битрейта : Постоянный
Битрейт : 192 Кбит/сек
Каналы : 2 канала
ChannelLayout : L R
Частота : 48,0 КГц
Частота кадров : 31,250 кадров/сек (1536 SPF)
Метод сжатия : С потерями
Размер потока : 162 Мбайт (1%)
Заголовок : AVO Юрий Живов
Язык : Russian
ServiceKind/String : Complete Main
Default : Нет
Forced : Нет

Аудио #4
Идентификатор : 5
Формат : AC-3
Формат/Информация : Audio Coding 3
Коммерческое название : Dolby Digital
Идентификатор кодека : A_AC3
Продолжительность : 1 ч. 58 м.
Вид битрейта : Постоянный
Битрейт : 192 Кбит/сек
Каналы : 2 канала
ChannelLayout : L R
Частота : 48,0 КГц
Частота кадров : 31,250 кадров/сек (1536 SPF)
Метод сжатия : С потерями
Размер потока : 162 Мбайт (1%)
Заголовок : AVO Александр Кашкин (Первомайский)
Язык : Russian
ServiceKind/String : Complete Main
Default : Нет
Forced : Нет

Аудио #5
Идентификатор : 6
Формат : DTS XLL
Формат/Информация : Digital Theater Systems
Коммерческое название : DTS-HD Master Audio
Идентификатор кодека : A_DTS
Продолжительность : 1 ч. 58 м.
Вид битрейта : Переменный
Битрейт : 3178 Кбит/сек
Каналы : 6 каналов
ChannelLayout : C L R Ls Rs LFE
Частота : 48,0 КГц
Частота кадров : 93,750 кадра/сек (512 SPF)
Битовая глубина : 24 бит
Метод сжатия : Без потерь
Размер потока : 2,62 Гбайт (9%)
Заголовок : Original
Язык : English
Default : Нет
Forced : Нет

Аудио #6
Идентификатор : 7
Формат : AC-3
Формат/Информация : Audio Coding 3
Коммерческое название : Dolby Digital
Идентификатор кодека : A_AC3
Продолжительность : 1 ч. 58 м.
Вид битрейта : Постоянный
Битрейт : 192 Кбит/сек
Каналы : 2 канала
ChannelLayout : L R
Частота : 48,0 КГц
Частота кадров : 31,250 кадров/сек (1536 SPF)
Метод сжатия : С потерями
Размер потока : 162 Мбайт (1%)
Заголовок : Commentary by Director&Writer Tab Murphy, Producer Joel B. Michaels & Filmmaker Douglas Hosdale
Язык : English
ServiceKind/String : Complete Main
Default : Нет
Forced : Нет

Текст #1
Идентификатор : 8
Формат : UTF-8
Идентификатор кодека : S_TEXT/UTF8
Идентификатор кодека/Информация : UTF-8 Plain Text
Продолжительность : 1 ч. 48 м.
Битрейт : 35 бит/сек
ElementCount : 1007
Размер потока : 28,5 Кбайт (0%)
Заголовок : English Full
Язык : English
Default : Нет
Forced : Нет

Текст #2
Идентификатор : 9
Формат : PGS
Идентификатор кодека : S_HDMV/PGS
Идентификатор кодека/Информация : Picture based subtitle format used on BDs/HD-DVDs
Продолжительность : 1 ч. 56 м.
Битрейт : 29,4 Кбит/сек
ElementCount : 2399
Размер потока : 24,5 Мбайт (0%)
Заголовок : English Full Blu-Ray
Язык : English
Default : Нет
Forced : Нет

Текст #3
Идентификатор : 10
Формат : UTF-8
Идентификатор кодека : S_TEXT/UTF8
Идентификатор кодека/Информация : UTF-8 Plain Text
Продолжительность : 1 ч. 56 м.
Битрейт : 44 бит/сек
ElementCount : 1528
Размер потока : 38,4 Кбайт (0%)
Заголовок : English SDH
Язык : English
Default : Нет
Forced : Нет

Текст #4
Идентификатор : 11
Формат : UTF-8
Идентификатор кодека : S_TEXT/UTF8
Идентификатор кодека/Информация : UTF-8 Plain Text
Продолжительность : 1 ч. 57 м.
Битрейт : 26 бит/сек
ElementCount : 791
Размер потока : 22,6 Кбайт (0%)
Заголовок : French
Язык : French
Default : Нет
Forced : Нет

Текст #5
Идентификатор : 12
Формат : UTF-8
Идентификатор кодека : S_TEXT/UTF8
Идентификатор кодека/Информация : UTF-8 Plain Text
Продолжительность : 1 ч. 51 м.
Битрейт : 40 бит/сек
ElementCount : 992
Размер потока : 32,8 Кбайт (0%)
Заголовок : Spanish
Язык : Spanish
Default : Нет
Forced : Нет

Текст #6
Идентификатор : 13
Формат : UTF-8
Идентификатор кодека : S_TEXT/UTF8
Идентификатор кодека/Информация : UTF-8 Plain Text
Продолжительность : 1 ч. 51 м.
Битрейт : 42 бит/сек
ElementCount : 999
Размер потока : 34,8 Кбайт (0%)
Заголовок : Portuguese Iberian
Язык : Portuguese
Default : Нет
Forced : Нет

Текст #7
Идентификатор : 14
Формат : UTF-8
Идентификатор кодека : S_TEXT/UTF8
Идентификатор кодека/Информация : UTF-8 Plain Text
Продолжительность : 1 ч. 51 м.
Битрейт : 40 бит/сек
ElementCount : 983
Размер потока : 32,8 Кбайт (0%)
Заголовок : Portuguese Brazilian
Язык : Portuguese
Default : Нет
Forced : Нет

Текст #8
Идентификатор : 15
Формат : UTF-8
Идентификатор кодека : S_TEXT/UTF8
Идентификатор кодека/Информация : UTF-8 Plain Text
Продолжительность : 1 ч. 55 м.
Битрейт : 61 бит/сек
ElementCount : 992
Размер потока : 51,8 Кбайт (0%)
Заголовок : Arabic
Язык : Arabic
Default : Нет
Forced : Нет

Текст #9
Идентификатор : 16
Формат : UTF-8
Идентификатор кодека : S_TEXT/UTF8
Идентификатор кодека/Информация : UTF-8 Plain Text
Продолжительность : 1 ч. 51 м.
Битрейт : 47 бит/сек
ElementCount : 743
Размер потока : 39,3 Кбайт (0%)
Заголовок : Bulgarian
Язык : Bulgarian
Default : Нет
Forced : Нет

Текст #10
Идентификатор : 17
Формат : UTF-8
Идентификатор кодека : S_TEXT/UTF8
Идентификатор кодека/Информация : UTF-8 Plain Text
Продолжительность : 1 ч. 57 м.
Битрейт : 57 бит/сек
ElementCount : 1206
Размер потока : 49,1 Кбайт (0%)
Заголовок : Vietnamese
Язык : Vietnamese
Default : Нет
Forced : Нет

Текст #11
Идентификатор : 18
Формат : UTF-8
Идентификатор кодека : S_TEXT/UTF8
Идентификатор кодека/Информация : UTF-8 Plain Text
Продолжительность : 1 ч. 48 м.
Битрейт : 30 бит/сек
ElementCount : 789
Размер потока : 24,6 Кбайт (0%)
Заголовок : Dutch
Язык : Dutch
Default : Нет
Forced : Нет

Текст #12
Идентификатор : 19
Формат : UTF-8
Идентификатор кодека : S_TEXT/UTF8
Идентификатор кодека/Информация : UTF-8 Plain Text
Продолжительность : 1 ч. 50 м.
Битрейт : 47 бит/сек
ElementCount : 783
Размер потока : 38,2 Кбайт (0%)
Заголовок : Greek
Язык : Greek
Default : Нет
Forced : Нет

Текст #13
Идентификатор : 20
Формат : UTF-8
Идентификатор кодека : S_TEXT/UTF8
Идентификатор кодека/Информация : UTF-8 Plain Text
Продолжительность : 1 ч. 48 м.
Битрейт : 35 бит/сек
ElementCount : 814
Размер потока : 28,2 Кбайт (0%)
Заголовок : Romanian
Язык : Romanian
Default : Нет
Forced : Нет

Текст #14
Идентификатор : 21
Формат : UTF-8
Идентификатор кодека : S_TEXT/UTF8
Идентификатор кодека/Информация : UTF-8 Plain Text
Продолжительность : 1 ч. 52 м.
Битрейт : 55 бит/сек
ElementCount : 993
Размер потока : 45,4 Кбайт (0%)
Заголовок : Serbian
Язык : Serbian
Default : Нет
Forced : Нет

Текст #15
Идентификатор : 22
Формат : UTF-8
Идентификатор кодека : S_TEXT/UTF8
Идентификатор кодека/Информация : UTF-8 Plain Text
Продолжительность : 1 ч. 51 м.
Битрейт : 38 бит/сек
ElementCount : 993
Размер потока : 31,7 Кбайт (0%)
Заголовок : Czech
Язык : Czech
Default : Нет
Forced : Нет

Меню
00:00:00.000 : en:Chapter 1
00:09:39.996 : en:Chapter 2
00:19:30.753 : en:Chapter 3
00:33:29.591 : en:Chapter 4
00:52:01.577 : en:Chapter 5
01:09:33.378 : en:Chapter 6
01:24:04.581 : en:Chapter 7
01:43:25.991 : en:Chapter 8
Релиз группы:


Этот торрент недоступен для скачивания без регистрации, однако доступен по публичной magnet-ссылке (источники с публичных трекеров). Перед использованием ссылки прочтите, пожалуйста Пользовательское соглашение, а также как можно дольше оставайтесь на раздаче! Для того, чтобы скачать сам торрент-файл (который видит больше источников), а также для того, чтобы поблагодарить релизера, вам необходимо зарегистрироваться. Если регистрироваться лень - вы можете также попробовать скачать релиз по нашим партнерским ссылкам ниже. Кроме того, зарегистрированным пользователям не показывается всплывающая реклама при скачивании.

[underver.se].t243506.torrent
Трекер: Зарегистрирован   [ 27.06.2022 09:39 ]  
Статус: проверено (by Robbertta at 27.06.2022 09:43)
Поблагодарили: пока никто не поблагодарил...
Тип торрента: публичный - доступные источники с открытых трекеров: 
Размер: 30.48 GB (занимает 6.96 DVDR, для записи нужно 7 болванок DVDR/RW)
 
 

Яндекс.Метрика powered by Sphinx


В Н И М А Н И Е
Сайт не распространяет и не хранит электронные версии произведений, а лишь бесплатно и без коммерческой выгоды (не требуя взамен платы,
SMS и т.д.) предоставляет доступ к создаваемому пользователями каталогу ссылок на торрент-файлы, которые содержат только списки хеш-сумм.
Убедительная просьба с жалобами обращаться напрямую к пользователю, разместившему торрент файл.

Вверх